999
DXF file: t1-en_25x100.dxf
999
Pro/ENGINEER 2019292 by Parametric Technology Corporation
  0
SECTION
  2
HEADER
  9
$EXTMAX
 10
420.0
 20
297.0
 30
0.0
  9
$EXTMIN
 10
0.0
 20
0.0
 30
0.0
  9
$LIMMIN
 10
0.0
 20
0.0
  9
$LIMMAX
 10
420.0
 20
297.0
  9
$VIEWCTR
 10
210.0
 20
148.5
  9
$VIEWSIZE
 40
297.0
  9
$CLAYER
  8
0
  9
$LTSCALE
 40
23.1
  9
$CELTYPE
  6
BYLAYER
  9
$DIMSCALE
 40
1.0
  9
$DIMASZ
 40
3.5
  9
$DIMEXO
 40
0.0
  9
$DIMDLI
 40
15.96
  9
$DIMEXE
 40
1.5
  9
$DIMCEN
 40
3.78
  9
$DIMLFAC
 40
1.0
  9
$DIMBLK
  1
_FILLED
  9
$DIMALT
 70
0
  9
$DIMALTF
 40
0.0393700787
  9
$DIMTXT
 40
3.0
  9
$AUNITS
 70
0
  9
$PDMODE
 70
3
  9
$PDSIZE
 40
0.3125
  9
$TILEMODE
 70
1
  0
ENDSEC
  0
SECTION
  2
TABLES
  0
TABLE
  2
LTYPE
 70
6
  0
LTYPE
  2
BYBLOCK
 70
0
  3

 72
65
 73
0
 40
0.0
  0
LTYPE
  2
BYLAYER
 70
0
  3

 72
65
 73
0
 40
0.0
  0
LTYPE
  2
CONTINUOUS
 70
64
  3
Solid line
 72
65
 73
0
 40
0.0
  0
LTYPE
  2
CENTER
 70
64
  3
____ _ ____ _ ____ _ ____ _ ____ _ ____ _ ____
 72
65
 73
4
 40
0.6
 49
0.375
 49
-0.075
 49
0.075
 49
-0.075
  0
LTYPE
  2
HIDDEN
 70
64
  3
- - - - - - - - - - - - - - - - - - - -
 72
65
 73
2
 40
0.2
 49
0.1
 49
-0.1
  0
LTYPE
  2
PHANTOM
 70
64
  3
_____ _ _ _____ _ _ _____ _ _ _____
 72
65
 73
6
 40
0.8
 49
0.45
 49
-0.05
 49
0.1
 49
-0.05
 49
0.1
 49
-0.05
  0
LTYPE
  2
DOT
 70
64
  3
. . . . . . . . . . . . . . . . . . . .
 72
65
 73
2
 40
0.2
 49
0.1
 49
-0.1
  0
LTYPE
  2
DASHED
 70
64
  3
- - - - - - - - - - - - - - - - - - - -
 72
65
 73
2
 40
0.2
 49
0.1
 49
-0.1
  0
ENDTAB
  0
TABLE
  2
LAYER
 70
36
  0
LAYER
  2
0
 70
0
 62
7
  6
CONTINUOUS
  0
LAYER
  2
DEFAULT_1
 70
0
 62
7
  6
CENTER
  0
LAYER
  2
DEFAULT_2
 70
0
 62
8
  6
HIDDEN
  0
LAYER
  2
DEFAULT_3
 70
0
 62
7
  6
PHANTOM
  0
LAYER
  2
AXIS
 70
0
 62
7
  6
CONTINUOUS
  0
LAYER
  2
BEZUGSACHSEN
 70
0
 62
7
  6
CONTINUOUS
  0
LAYER
  2
BEZUGSEBENEN
 70
0
 62
7
  6
CONTINUOUS
  0
LAYER
  2
CSYS
 70
0
 62
7
  6
CONTINUOUS
  0
LAYER
  2
FLAECHEN
 70
0
 62
7
  6
CONTINUOUS
  0
LAYER
  2
KONSTRUKTIONSELEMENTE
 70
0
 62
7
  6
CONTINUOUS
  0
LAYER
  2
KOORDINATENSYSTEME
 70
0
 62
7
  6
CONTINUOUS
  0
LAYER
  2
KURVEN
 70
0
 62
7
  6
CONTINUOUS
  0
LAYER
  2
PLANES
 70
0
 62
7
  6
CONTINUOUS
  0
LAYER
  2
SURFACES
 70
0
 62
7
  6
CONTINUOUS
  0
LAYER
  2
VOLUMEN
 70
0
 62
7
  6
CONTINUOUS
  0
ENDTAB
  0
TABLE
  2
STYLE
 70
1
  0
STYLE
  2
STANDARD
 70
0
 40
0.0
 41
0.8
 50
0.0
 71
0
 42
0.2
  3
txt
  4

  0
STYLE
  2
TEXTSTYLE_1
 70
0
 40
0.0
 41
0.8
 50
0.0
 71
0
 42
0.2
  3
gdt
  4

  0
STYLE
  2
TEXTSTYLE_2
 70
0
 40
0.0
 41
1.0
 50
0.0
 71
0
 42
0.2
  3
txt
  4

  0
ENDTAB
  0
ENDSEC
  0
SECTION
  2
BLOCKS
  0
BLOCK
  8
0
  2
_FILLED
 70
64
 10
0.0
 20
0.0
  0
SOLID
  8
0
  6
BYBLOCK
 62
0
 10
0.0
 20
0.0
 11
-1.0
 21
0.125
 12
-1.0
 22
-0.125
 13
-1.0
 23
-0.125
  0
ENDBLK
  8
0
  6
BYBLOCK
 62
0
  0
BLOCK
  8
0
 62
2
  6
CONTINUOUS
  2
*D0
 70
65
 10
0.0
 20
0.0
  0
TEXT
  8
0
 62
2
  6
CONTINUOUS
 10
68.1545454798
 20
282.7049881575
  7
STANDARD
 40
3.0
  1
0.98"
 41
0.8
 72
1
 11
74.1545454798
 21
282.7049881575
  0
TEXT
  8
0
 62
2
  6
CONTINUOUS
 10
66.9545454798
 20
278.2049881575
  7
STANDARD
 40
3.0
  1
(
 41
0.8
 72
1
 11
68.1545454798
 21
278.2049881575
  0
TEXT
  8
0
 62
2
  6
CONTINUOUS
 10
69.3545454798
 20
278.2049881575
  7
STANDARD
 40
3.0
  1
25
 41
0.8
 72
1
 11
71.7545454798
 21
278.2049881575
  0
TEXT
  8
0
 62
2
  6
CONTINUOUS
 10
74.1545454798
 20
278.2049881575
  7
STANDARD
 40
3.0
  1
mm)
 41
0.8
 72
1
 11
77.7545454798
 21
278.2049881575
  0
LINE
  8
0
 62
2
  6
CONTINUOUS
 10
61.6545454798
 20
248.7054056411
 11
61.6545454798
 21
278.9549881575
  0
LINE
  8
0
 62
2
  6
CONTINUOUS
 10
86.6545454798
 20
248.7054056411
 11
86.6545454798
 21
278.9549881575
  0
LINE
  8
0
 62
2
  6
CONTINUOUS
 10
61.6545454798
 20
277.4549881575
 11
74.1545454798
 21
277.4549881575
  0
LINE
  8
0
 62
2
  6
CONTINUOUS
 10
86.6545454798
 20
277.4549881575
 11
74.1545454798
 21
277.4549881575
  0
INSERT
  8
0
 62
2
  6
CONTINUOUS
  2
_FILLED
 10
61.6545454798
 20
277.4549881575
 41
3.5
 42
3.5
 43
3.5
 50
180.0
  0
INSERT
  8
0
 62
2
  6
CONTINUOUS
  2
_FILLED
 10
86.6545454798
 20
277.4549881575
 41
3.5
 42
3.5
 43
3.5
  0
ENDBLK
  8
0
  6
BYBLOCK
 62
0
  0
BLOCK
  8
0
 62
2
  6
CONTINUOUS
  2
*D1
 70
65
 10
0.0
 20
0.0
  0
TEXT
  8
0
 62
2
  6
CONTINUOUS
 10
92.8747269837
 20
46.4963057245
  7
STANDARD
 40
3.0
  1
0.98"
 41
0.8
 72
1
 11
98.8747269837
 21
46.4963057245
  0
TEXT
  8
0
 62
2
  6
CONTINUOUS
 10
91.6747269837
 20
41.9963057245
  7
STANDARD
 40
3.0
  1
(
 41
0.8
 72
1
 11
92.8747269837
 21
41.9963057245
  0
TEXT
  8
0
 62
2
  6
CONTINUOUS
 10
94.0747269837
 20
41.9963057245
  7
STANDARD
 40
3.0
  1
25
 41
0.8
 72
1
 11
96.4747269837
 21
41.9963057245
  0
TEXT
  8
0
 62
2
  6
CONTINUOUS
 10
98.8747269837
 20
41.9963057245
  7
STANDARD
 40
3.0
  1
mm)
 41
0.8
 72
1
 11
102.4747269837
 21
41.9963057245
  0
LINE
  8
0
 62
2
  6
CONTINUOUS
 10
86.3747269837
 20
68.632605013
 11
86.3747269837
 21
39.7463057245
  0
LINE
  8
0
 62
2
  6
CONTINUOUS
 10
111.3747269837
 20
68.8817929958
 11
111.3747269837
 21
39.7463057245
  0
LINE
  8
0
 62
2
  6
CONTINUOUS
 10
86.3747269837
 20
41.2463057245
 11
98.8747269837
 21
41.2463057245
  0
LINE
  8
0
 62
2
  6
CONTINUOUS
 10
111.3747269837
 20
41.2463057245
 11
98.8747269837
 21
41.2463057245
  0
INSERT
  8
0
 62
2
  6
CONTINUOUS
  2
_FILLED
 10
86.3747269837
 20
41.2463057245
 41
3.5
 42
3.5
 43
3.5
 50
180.0
  0
INSERT
  8
0
 62
2
  6
CONTINUOUS
  2
_FILLED
 10
111.3747269837
 20
41.2463057245
 41
3.5
 42
3.5
 43
3.5
  0
ENDBLK
  8
0
  6
BYBLOCK
 62
0
  0
BLOCK
  8
0
 62
2
  6
CONTINUOUS
  2
*D2
 70
65
 10
0.0
 20
0.0
  0
TEXT
  8
0
 62
2
  6
CONTINUOUS
 10
68.6247269837
 20
46.4963057245
  7
STANDARD
 40
3.0
  1
0.93"
 41
0.8
 72
1
 11
74.6247269837
 21
46.4963057245
  0
TEXT
  8
0
 62
2
  6
CONTINUOUS
 10
65.0247269837
 20
41.9963057245
  7
STANDARD
 40
3.0
  1
(
 41
0.8
 72
1
 11
66.2247269837
 21
41.9963057245
  0
TEXT
  8
0
 62
2
  6
CONTINUOUS
 10
67.4247269837
 20
41.9963057245
  7
STANDARD
 40
3.0
  1
23.5
 41
0.8
 72
1
 11
72.2247269837
 21
41.9963057245
  0
TEXT
  8
0
 62
2
  6
CONTINUOUS
 10
77.0247269837
 20
41.9963057245
  7
STANDARD
 40
3.0
  1
mm)
 41
0.8
 72
1
 11
80.6247269837
 21
41.9963057245
  0
LINE
  8
0
 62
2
  6
CONTINUOUS
 10
62.8747269837
 20
69.0911109014
 11
62.8747269837
 21
39.7463057245
  0
LINE
  8
0
 62
2
  6
CONTINUOUS
 10
86.3747269837
 20
68.9316305923
 11
86.3747269837
 21
39.7463057245
  0
LINE
  8
0
 62
2
  6
CONTINUOUS
 10
62.8747269837
 20
41.2463057245
 11
56.8747269837
 21
41.2463057245
  0
LINE
  8
0
 62
2
  6
CONTINUOUS
 10
56.8747269837
 20
41.2463057245
 11
74.6247269837
 21
41.2463057245
  0
LINE
  8
0
 62
2
  6
CONTINUOUS
 10
86.3747269837
 20
41.2463057245
 11
92.3747269837
 21
41.2463057245
  0
LINE
  8
0
 62
2
  6
CONTINUOUS
 10
92.3747269837
 20
41.2463057245
 11
74.6247269837
 21
41.2463057245
  0
INSERT
  8
0
 62
2
  6
CONTINUOUS
  2
_FILLED
 10
62.8747269837
 20
41.2463057245
 41
3.5
 42
3.5
 43
3.5
  0
INSERT
  8
0
 62
2
  6
CONTINUOUS
  2
_FILLED
 10
86.3747269837
 20
41.2463057245
 41
3.5
 42
3.5
 43
3.5
 50
180.0
  0
ENDBLK
  8
0
  6
BYBLOCK
 62
0
  0
BLOCK
  8
0
 62
2
  6
CONTINUOUS
  2
*D3
 70
65
 10
0.0
 20
0.0
  0
TEXT
  8
0
 62
2
  6
CONTINUOUS
 10
118.9724625066
 20
46.4963057245
  7
STANDARD
 40
3.0
  1
0.98"
 41
0.8
 72
1
 11
124.9724625066
 21
46.4963057245
  0
TEXT
  8
0
 62
2
  6
CONTINUOUS
 10
117.7724625066
 20
41.9963057245
  7
STANDARD
 40
3.0
  1
(
 41
0.8
 72
1
 11
118.9724625066
 21
41.9963057245
  0
TEXT
  8
0
 62
2
  6
CONTINUOUS
 10
120.1724625066
 20
41.9963057245
  7
STANDARD
 40
3.0
  1
25
 41
0.8
 72
1
 11
122.5724625066
 21
41.9963057245
  0
TEXT
  8
0
 62
2
  6
CONTINUOUS
 10
124.9724625066
 20
41.9963057245
  7
STANDARD
 40
3.0
  1
mm)
 41
0.8
 72
1
 11
128.5724625066
 21
41.9963057245
  0
LINE
  8
0
 62
2
  6
CONTINUOUS
 10
111.3747269837
 20
69.0113707469
 11
111.3747269837
 21
39.7463057245
  0
LINE
  8
0
 62
2
  6
CONTINUOUS
 10
136.3747269837
 20
68.9316305923
 11
136.3747269837
 21
39.7463057245
  0
LINE
  8
0
 62
2
  6
CONTINUOUS
 10
111.3747269837
 20
41.2463057245
 11
123.8747269837
 21
41.2463057245
  0
LINE
  8
0
 62
2
  6
CONTINUOUS
 10
136.3747269837
 20
41.2463057245
 11
123.8747269837
 21
41.2463057245
  0
INSERT
  8
0
 62
2
  6
CONTINUOUS
  2
_FILLED
 10
111.3747269837
 20
41.2463057245
 41
3.5
 42
3.5
 43
3.5
 50
180.0
  0
INSERT
  8
0
 62
2
  6
CONTINUOUS
  2
_FILLED
 10
136.3747269837
 20
41.2463057245
 41
3.5
 42
3.5
 43
3.5
  0
ENDBLK
  8
0
  6
BYBLOCK
 62
0
  0
BLOCK
  8
0
 62
2
  6
CONTINUOUS
  2
*D4
 70
65
 10
0.0
 20
0.0
  0
TEXT
  8
0
 62
2
  6
CONTINUOUS
 10
143.9724625066
 20
46.4963057245
  7
STANDARD
 40
3.0
  1
0.98"
 41
0.8
 72
1
 11
149.9724625066
 21
46.4963057245
  0
TEXT
  8
0
 62
2
  6
CONTINUOUS
 10
142.7724625066
 20
41.9963057245
  7
STANDARD
 40
3.0
  1
(
 41
0.8
 72
1
 11
143.9724625066
 21
41.9963057245
  0
TEXT
  8
0
 62
2
  6
CONTINUOUS
 10
145.1724625066
 20
41.9963057245
  7
STANDARD
 40
3.0
  1
25
 41
0.8
 72
1
 11
147.5724625066
 21
41.9963057245
  0
TEXT
  8
0
 62
2
  6
CONTINUOUS
 10
149.9724625066
 20
41.9963057245
  7
STANDARD
 40
3.0
  1
mm)
 41
0.8
 72
1
 11
153.5724625066
 21
41.9963057245
  0
LINE
  8
0
 62
2
  6
CONTINUOUS
 10
136.3747269837
 20
68.9316305923
 11
136.3747269837
 21
39.7463057245
  0
LINE
  8
0
 62
2
  6
CONTINUOUS
 10
161.3747269837
 20
68.9316305923
 11
161.3747269837
 21
39.7463057245
  0
LINE
  8
0
 62
2
  6
CONTINUOUS
 10
136.3747269837
 20
41.2463057245
 11
148.8747269837
 21
41.2463057245
  0
LINE
  8
0
 62
2
  6
CONTINUOUS
 10
161.3747269837
 20
41.2463057245
 11
148.8747269837
 21
41.2463057245
  0
INSERT
  8
0
 62
2
  6
CONTINUOUS
  2
_FILLED
 10
136.3747269837
 20
41.2463057245
 41
3.5
 42
3.5
 43
3.5
 50
180.0
  0
INSERT
  8
0
 62
2
  6
CONTINUOUS
  2
_FILLED
 10
161.3747269837
 20
41.2463057245
 41
3.5
 42
3.5
 43
3.5
  0
ENDBLK
  8
0
  6
BYBLOCK
 62
0
  0
BLOCK
  8
0
 62
2
  6
CONTINUOUS
  2
*D5
 70
65
 10
0.0
 20
0.0
  0
TEXT
  8
0
 62
2
  6
CONTINUOUS
 10
163.7952109941
 20
113.4963057245
  7
STANDARD
 40
3.0
  1
0.32"
 41
0.8
 72
2
 11
175.7952109941
 21
113.4963057245
  0
TEXT
  8
0
 62
2
  6
CONTINUOUS
 10
163.7952109941
 20
108.9963057245
  7
STANDARD
 40
3.0
  1
(
 41
0.8
 72
2
 11
166.1952109941
 21
108.9963057245
  0
TEXT
  8
0
 62
2
  6
CONTINUOUS
 10
166.1952109941
 20
108.9963057245
  7
STANDARD
 40
3.0
  1
8
 41
0.8
 72
2
 11
168.5952109941
 21
108.9963057245
  0
TEXT
  8
0
 62
2
  6
CONTINUOUS
 10
168.5952109941
 20
108.9963057245
  7
STANDARD
 40
3.0
  1
mm)
 41
0.8
 72
2
 11
175.7952109941
 21
108.9963057245
  0
LINE
  8
0
 62
2
  6
CONTINUOUS
 10
182.3747269837
 20
68.7463057245
 11
182.3747269837
 21
109.7463057245
  0
LINE
  8
0
 62
2
  6
CONTINUOUS
 10
190.3747269837
 20
68.7463057245
 11
190.3747269837
 21
109.7463057245
  0
LINE
  8
0
 62
2
  6
CONTINUOUS
 10
182.3747269837
 20
108.2463057245
 11
186.3747269837
 21
108.2463057245
  0
LINE
  8
0
 62
2
  6
CONTINUOUS
 10
186.3747269837
 20
108.2463057245
 11
163.7952109941
 21
108.2463057245
  0
LINE
  8
0
 62
2
  6
CONTINUOUS
 10
190.3747269837
 20
108.2463057245
 11
186.3747269837
 21
108.2463057245
  0
INSERT
  8
0
 62
2
  6
CONTINUOUS
  2
_FILLED
 10
182.3747269837
 20
108.2463057245
 41
3.5
 42
3.5
 43
3.5
 50
180.0
  0
INSERT
  8
0
 62
2
  6
CONTINUOUS
  2
_FILLED
 10
190.3747269837
 20
108.2463057245
 41
3.5
 42
3.5
 43
3.5
  0
ENDBLK
  8
0
  6
BYBLOCK
 62
0
  0
BLOCK
  8
0
 62
2
  6
CONTINUOUS
  2
*D6
 70
65
 10
0.0
 20
0.0
  0
TEXT
  8
0
 62
2
  6
CONTINUOUS
 10
171.4507252551
 20
91.2463057245
  7
STANDARD
 40
3.0
  1
0.18"
 50
90.0
 41
0.8
 72
0
  0
TEXT
  8
0
 62
2
  6
CONTINUOUS
 10
175.9507252551
 20
91.2463057245
  7
STANDARD
 40
3.0
  1
(
 50
90.0
 41
0.8
 72
0
  0
TEXT
  8
0
 62
2
  6
CONTINUOUS
 10
175.9507252551
 20
93.6463057245
  7
STANDARD
 40
3.0
  1
4.5
 50
90.0
 41
0.8
 72
0
  0
TEXT
  8
0
 62
2
  6
CONTINUOUS
 10
175.9507252551
 20
100.8463057245
  7
STANDARD
 40
3.0
  1
mm)
 50
90.0
 41
0.8
 72
0
  0
LINE
  8
0
 62
2
  6
CONTINUOUS
 10
184.6247269837
 20
70.9963057245
 11
175.2007252551
 21
70.9963057245
  0
LINE
  8
0
 62
2
  6
CONTINUOUS
 10
184.6247269837
 20
66.4963057245
 11
175.2007252551
 21
66.4963057245
  0
LINE
  8
0
 62
2
  6
CONTINUOUS
 10
176.7007252551
 20
70.9963057245
 11
176.7007252551
 21
108.0463057245
  0
LINE
  8
0
 62
2
  6
CONTINUOUS
 10
176.7007252551
 20
108.0463057245
 11
176.7007252551
 21
68.7463057245
  0
LINE
  8
0
 62
2
  6
CONTINUOUS
 10
176.7007252551
 20
66.4963057245
 11
176.7007252551
 21
60.4963057245
  0
LINE
  8
0
 62
2
  6
CONTINUOUS
 10
176.7007252551
 20
60.4963057245
 11
176.7007252551
 21
68.7463057245
  0
INSERT
  8
0
 62
2
  6
CONTINUOUS
  2
_FILLED
 10
176.7007252551
 20
70.9963057245
 41
3.5
 42
3.5
 43
3.5
 50
270.0
  0
INSERT
  8
0
 62
2
  6
CONTINUOUS
  2
_FILLED
 10
176.7007252551
 20
66.4963057245
 41
3.5
 42
3.5
 43
3.5
 50
90.0
  0
ENDBLK
  8
0
  6
BYBLOCK
 62
0
  0
BLOCK
  8
0
 62
2
  6
CONTINUOUS
  2
*D7
 70
65
 10
0.0
 20
0.0
  0
TEXT
  8
0
 62
2
  6
CONTINUOUS
 10
195.8328168714
 20
91.2463057245
  7
STANDARD
 40
3.0
  1
0.26"
 50
90.0
 41
0.8
 72
0
  0
TEXT
  8
0
 62
2
  6
CONTINUOUS
 10
200.3328168714
 20
91.2463057245
  7
STANDARD
 40
3.0
  1
(
 50
90.0
 41
0.8
 72
0
  0
TEXT
  8
0
 62
2
  6
CONTINUOUS
 10
200.3328168714
 20
93.6463057245
  7
STANDARD
 40
3.0
  1
6.5
 50
90.0
 41
0.8
 72
0
  0
TEXT
  8
0
 62
2
  6
CONTINUOUS
 10
200.3328168714
 20
100.8463057245
  7
STANDARD
 40
3.0
  1
mm)
 50
90.0
 41
0.8
 72
0
  0
LINE
  8
0
 62
2
  6
CONTINUOUS
 10
207.6247269837
 20
71.9963057245
 11
199.5828168714
 21
71.9963057245
  0
LINE
  8
0
 62
2
  6
CONTINUOUS
 10
207.6247269837
 20
65.4963057245
 11
199.5828168714
 21
65.4963057245
  0
LINE
  8
0
 62
2
  6
CONTINUOUS
 10
201.0828168714
 20
71.9963057245
 11
201.0828168714
 21
108.0463057245
  0
LINE
  8
0
 62
2
  6
CONTINUOUS
 10
201.0828168714
 20
108.0463057245
 11
201.0828168714
 21
68.7463057245
  0
LINE
  8
0
 62
2
  6
CONTINUOUS
 10
201.0828168714
 20
65.4963057245
 11
201.0828168714
 21
59.4963057245
  0
LINE
  8
0
 62
2
  6
CONTINUOUS
 10
201.0828168714
 20
59.4963057245
 11
201.0828168714
 21
68.7463057245
  0
INSERT
  8
0
 62
2
  6
CONTINUOUS
  2
_FILLED
 10
201.0828168714
 20
71.9963057245
 41
3.5
 42
3.5
 43
3.5
 50
270.0
  0
INSERT
  8
0
 62
2
  6
CONTINUOUS
  2
_FILLED
 10
201.0828168714
 20
65.4963057245
 41
3.5
 42
3.5
 43
3.5
 50
90.0
  0
ENDBLK
  8
0
  6
BYBLOCK
 62
0
  0
BLOCK
  8
0
 62
2
  6
CONTINUOUS
  2
*D8
 70
65
 10
0.0
 20
0.0
  0
TEXT
  8
0
 62
2
  6
CONTINUOUS
 10
228.0613475542
 20
113.4963057245
  7
STANDARD
 40
3.0
  1
0.55"
 41
0.8
 72
0
  0
TEXT
  8
0
 62
2
  6
CONTINUOUS
 10
228.0613475542
 20
108.9963057245
  7
STANDARD
 40
3.0
  1
(
 41
0.8
 72
0
  0
TEXT
  8
0
 62
2
  6
CONTINUOUS
 10
230.4613475542
 20
108.9963057245
  7
STANDARD
 40
3.0
  1
14
 41
0.8
 72
0
  0
TEXT
  8
0
 62
2
  6
CONTINUOUS
 10
235.2613475542
 20
108.9963057245
  7
STANDARD
 40
3.0
  1
mm)
 41
0.8
 72
0
  0
LINE
  8
0
 62
2
  6
CONTINUOUS
 10
204.3747269837
 20
68.7463057245
 11
204.3747269837
 21
109.7463057245
  0
LINE
  8
0
 62
2
  6
CONTINUOUS
 10
218.3747269837
 20
68.7463057245
 11
218.3747269837
 21
109.7463057245
  0
LINE
  8
0
 62
2
  6
CONTINUOUS
 10
204.3747269837
 20
108.2463057245
 11
211.3747269837
 21
108.2463057245
  0
LINE
  8
0
 62
2
  6
CONTINUOUS
 10
218.3747269837
 20
108.2463057245
 11
211.3747269837
 21
108.2463057245
  0
LINE
  8
0
 62
2
  6
CONTINUOUS
 10
211.3747269837
 20
108.2463057245
 11
242.4613475542
 21
108.2463057245
  0
INSERT
  8
0
 62
2
  6
CONTINUOUS
  2
_FILLED
 10
204.3747269837
 20
108.2463057245
 41
3.5
 42
3.5
 43
3.5
 50
180.0
  0
INSERT
  8
0
 62
2
  6
CONTINUOUS
  2
_FILLED
 10
218.3747269837
 20
108.2463057245
 41
3.5
 42
3.5
 43
3.5
  0
ENDBLK
  8
0
  6
BYBLOCK
 62
0
  0
BLOCK
  8
0
 62
2
  6
CONTINUOUS
  2
*D9
 70
65
 10
0.0
 20
0.0
  0
TEXT
  8
0
 62
2
  6
CONTINUOUS
 10
180.2634644079
 20
142.7049881575
  7
STANDARD
 40
3.0
  1
0.18"
 41
0.8
 72
2
 11
192.2634644079
 21
142.7049881575
  0
TEXT
  8
0
 62
2
  6
CONTINUOUS
 10
180.2634644079
 20
138.2049881575
  7
STANDARD
 40
3.0
  1
(
 41
0.8
 72
2
 11
182.6634644079
 21
138.2049881575
  0
TEXT
  8
0
 62
2
  6
CONTINUOUS
 10
182.6634644079
 20
138.2049881575
  7
STANDARD
 40
3.0
  1
4
 41
0.8
 72
2
 11
185.0634644079
 21
138.2049881575
  0
TEXT
  8
0
 62
2
  6
CONTINUOUS
 10
185.0634644079
 20
138.2049881575
  7
STANDARD
 40
3.0
  1
mm)
 41
0.8
 72
2
 11
192.2634644079
 21
138.2049881575
  0
LINE
  8
0
 62
2
  6
CONTINUOUS
 10
206.2634644079
 20
170.9549881575
 11
206.2634644079
 21
135.9549881575
  0
LINE
  8
0
 62
2
  6
CONTINUOUS
 10
210.2634644079
 20
170.9549881575
 11
210.2634644079
 21
135.9549881575
  0
LINE
  8
0
 62
2
  6
CONTINUOUS
 10
206.2634644079
 20
137.4549881575
 11
180.2634644079
 21
137.4549881575
  0
LINE
  8
0
 62
2
  6
CONTINUOUS
 10
180.2634644079
 20
137.4549881575
 11
208.2634644079
 21
137.4549881575
  0
LINE
  8
0
 62
2
  6
CONTINUOUS
 10
210.2634644079
 20
137.4549881575
 11
216.2634644079
 21
137.4549881575
  0
LINE
  8
0
 62
2
  6
CONTINUOUS
 10
216.2634644079
 20
137.4549881575
 11
208.2634644079
 21
137.4549881575
  0
INSERT
  8
0
 62
2
  6
CONTINUOUS
  2
_FILLED
 10
206.2634644079
 20
137.4549881575
 41
3.5
 42
3.5
 43
3.5
  0
INSERT
  8
0
 62
2
  6
CONTINUOUS
  2
_FILLED
 10
210.2634644079
 20
137.4549881575
 41
3.5
 42
3.5
 43
3.5
 50
180.0
  0
ENDBLK
  8
0
  6
BYBLOCK
 62
0
  0
BLOCK
  8
0
 62
2
  6
CONTINUOUS
  2
*D10
 70
65
 10
0.0
 20
0.0
  0
TEXT
  8
0
 62
2
  6
CONTINUOUS
 10
215.5348559377
 20
142.7049881575
  7
STANDARD
 40
3.0
  1
0.24"
 41
0.8
 72
2
 11
227.5348559377
 21
142.7049881575
  0
TEXT
  8
0
 62
2
  6
CONTINUOUS
 10
215.5348559377
 20
138.2049881575
  7
STANDARD
 40
3.0
  1
(
 41
0.8
 72
2
 11
217.9348559377
 21
138.2049881575
  0
TEXT
  8
0
 62
2
  6
CONTINUOUS
 10
217.9348559377
 20
138.2049881575
  7
STANDARD
 40
3.0
  1
6
 41
0.8
 72
2
 11
220.3348559377
 21
138.2049881575
  0
TEXT
  8
0
 62
2
  6
CONTINUOUS
 10
220.3348559377
 20
138.2049881575
  7
STANDARD
 40
3.0
  1
mm)
 41
0.8
 72
2
 11
227.5348559377
 21
138.2049881575
  0
LINE
  8
0
 62
2
  6
CONTINUOUS
 10
230.2634644079
 20
170.9549881575
 11
230.2634644079
 21
135.9549881575
  0
LINE
  8
0
 62
2
  6
CONTINUOUS
 10
236.2634644079
 20
170.9549881575
 11
236.2634644079
 21
135.9549881575
  0
LINE
  8
0
 62
2
  6
CONTINUOUS
 10
230.2634644079
 20
137.4549881575
 11
215.5348559377
 21
137.4549881575
  0
LINE
  8
0
 62
2
  6
CONTINUOUS
 10
215.5348559377
 20
137.4549881575
 11
233.2634644079
 21
137.4549881575
  0
LINE
  8
0
 62
2
  6
CONTINUOUS
 10
236.2634644079
 20
137.4549881575
 11
242.2634644079
 21
137.4549881575
  0
LINE
  8
0
 62
2
  6
CONTINUOUS
 10
242.2634644079
 20
137.4549881575
 11
233.2634644079
 21
137.4549881575
  0
INSERT
  8
0
 62
2
  6
CONTINUOUS
  2
_FILLED
 10
230.2634644079
 20
137.4549881575
 41
3.5
 42
3.5
 43
3.5
  0
INSERT
  8
0
 62
2
  6
CONTINUOUS
  2
_FILLED
 10
236.2634644079
 20
137.4549881575
 41
3.5
 42
3.5
 43
3.5
 50
180.0
  0
ENDBLK
  8
0
  6
BYBLOCK
 62
0
  0
BLOCK
  8
0
 62
2
  6
CONTINUOUS
  2
*D11
 70
65
 10
0.0
 20
0.0
  0
TEXT
  8
0
 62
2
  6
CONTINUOUS
 10
96.4045454798
 20
196.7049881575
  7
STANDARD
 40
3.0
  1
3.94"
 50
90.0
 41
0.8
 72
1
 11
96.4045454798
 21
202.7049881575
  0
TEXT
  8
0
 62
2
  6
CONTINUOUS
 10
100.9045454798
 20
194.3049881575
  7
STANDARD
 40
3.0
  1
(
 50
90.0
 41
0.8
 72
1
 11
100.9045454798
 21
195.5049881575
  0
TEXT
  8
0
 62
2
  6
CONTINUOUS
 10
100.9045454798
 20
196.7049881575
  7
STANDARD
 40
3.0
  1
100
 50
90.0
 41
0.8
 72
1
 11
100.9045454798
 21
200.3049881575
  0
TEXT
  8
0
 62
2
  6
CONTINUOUS
 10
100.9045454798
 20
203.9049881575
  7
STANDARD
 40
3.0
  1
mm)
 50
90.0
 41
0.8
 72
1
 11
100.9045454798
 21
207.5049881575
  0
LINE
  8
0
 62
2
  6
CONTINUOUS
 10
85.6545454798
 20
252.9549881575
 11
103.1545454798
 21
252.9549881575
  0
LINE
  8
0
 62
2
  6
CONTINUOUS
 10
85.1545454798
 20
152.4549881575
 11
103.1545454798
 21
152.4549881575
  0
LINE
  8
0
 62
2
  6
CONTINUOUS
 10
101.6545454798
 20
252.9549881575
 11
101.6545454798
 21
202.7049881575
  0
LINE
  8
0
 62
2
  6
CONTINUOUS
 10
101.6545454798
 20
152.4549881575
 11
101.6545454798
 21
202.7049881575
  0
INSERT
  8
0
 62
2
  6
CONTINUOUS
  2
_FILLED
 10
101.6545454798
 20
252.9549881575
 41
3.5
 42
3.5
 43
3.5
 50
90.0
  0
INSERT
  8
0
 62
2
  6
CONTINUOUS
  2
_FILLED
 10
101.6545454798
 20
152.4549881575
 41
3.5
 42
3.5
 43
3.5
 50
270.0
  0
ENDBLK
  8
0
  6
BYBLOCK
 62
0
  0
BLOCK
  8
0
 62
2
  6
CONTINUOUS
  2
*D12
 70
65
 10
0.0
 20
0.0
  0
TEXT
  8
0
 62
2
  6
CONTINUOUS
 10
31.8747269837
 20
65.9419064159
  7
STANDARD
 40
3.0
  1
0.22"
 41
0.8
 72
2
 11
43.8747269837
 21
65.9419064159
  0
TEXT
  8
0
 62
2
  6
CONTINUOUS
 10
27.0747269837
 20
61.4419064159
  7
STANDARD
 40
3.0
  1
(
 41
0.8
 72
2
 11
29.4747269837
 21
61.4419064159
  0
TEXT
  8
0
 62
2
  6
CONTINUOUS
 10
29.4747269837
 20
61.4419064159
  7
STANDARD
 40
3.0
  1
5.5
 41
0.8
 72
2
 11
36.6747269837
 21
61.4419064159
  0
TEXT
  8
0
 62
2
  6
CONTINUOUS
 10
36.6747269837
 20
61.4419064159
  7
STANDARD
 40
3.0
  1
mm)
 41
0.8
 72
2
 11
43.8747269837
 21
61.4419064159
  0
LINE
  8
0
 62
2
  6
CONTINUOUS
 10
68.3747269837
 20
68.7463057245
 11
68.3747269837
 21
59.1919064159
  0
LINE
  8
0
 62
2
  6
CONTINUOUS
 10
62.8747269837
 20
60.6919064159
 11
27.0747269837
 21
60.6919064159
  0
LINE
  8
0
 62
2
  6
CONTINUOUS
 10
27.0747269837
 20
60.6919064159
 11
65.6247269837
 21
60.6919064159
  0
LINE
  8
0
 62
2
  6
CONTINUOUS
 10
68.3747269837
 20
60.6919064159
 11
74.3747269837
 21
60.6919064159
  0
LINE
  8
0
 62
2
  6
CONTINUOUS
 10
74.3747269837
 20
60.6919064159
 11
65.6247269837
 21
60.6919064159
  0
INSERT
  8
0
 62
2
  6
CONTINUOUS
  2
_FILLED
 10
62.8747269837
 20
60.6919064159
 41
3.5
 42
3.5
 43
3.5
  0
INSERT
  8
0
 62
2
  6
CONTINUOUS
  2
_FILLED
 10
68.3747269837
 20
60.6919064159
 41
3.5
 42
3.5
 43
3.5
 50
180.0
  0
ENDBLK
  8
0
  6
BYBLOCK
 62
0
  0
ENDSEC
  0
SECTION
  2
ENTITIES
  0
SOLID
  8
0
 62
7
  6
CONTINUOUS
 10
12.1186101871
 20
17.8282768036
 11
12.826930246
 21
17.9168874646
 12
13.5405306481
 22
17.89835044
 13
13.5405306481
 23
17.89835044
  0
SOLID
  8
0
 62
7
  6
CONTINUOUS
 10
13.5405306481
 20
17.89835044
 11
14.2432948835
 21
17.7730843845
 12
12.1186101871
 22
17.8282768036
 13
12.1186101871
 23
17.8282768036
  0
SOLID
  8
0
 62
7
  6
CONTINUOUS
 10
11.4315677257
 20
17.6345197097
 11
12.1186101871
 21
17.8282768036
 12
14.2432948835
 22
17.7730843845
 13
14.2432948835
 23
17.7730843845
  0
SOLID
  8
0
 62
7
  6
CONTINUOUS
 10
14.2432948835
 20
17.7730843845
 11
14.9193511747
 21
17.5439184048
 12
11.4315677257
 22
17.6345197097
 13
11.4315677257
 23
17.6345197097
  0
SOLID
  8
0
 62
7
  6
CONTINUOUS
 10
10.7813195665
 20
17.3399921445
 11
11.4315677257
 21
17.6345197097
 12
14.9193511747
 22
17.5439184048
 13
14.9193511747
 23
17.5439184048
  0
SOLID
  8
0
 62
7
  6
CONTINUOUS
 10
14.9193511747
 20
17.5439184048
 11
15.5534309375
 21
17.2160281647
 12
10.7813195665
 22
17.3399921445
 13
10.7813195665
 23
17.3399921445
  0
SOLID
  8
0
 62
7
  6
CONTINUOUS
 10
10.1825514228
 20
16.9513459492
 11
10.7813195665
 21
17.3399921445
 12
15.5534309375
 22
17.2160281647
 13
15.5534309375
 23
17.2160281647
  0
SOLID
  8
0
 62
7
  6
CONTINUOUS
 10
10.1825514228
 20
16.9513459492
 11
15.5534309375
 21
17.2160281647
 12
13.1353140403
 22
16.8758140341
 13
13.1353140403
 23
16.8758140341
  0
SOLID
  8
0
 62
7
  6
CONTINUOUS
 10
13.1353140403
 20
16.8758140341
 11
15.5534309375
 21
17.2160281647
 12
13.3572684648
 22
16.8484385669
 13
13.3572684648
 23
16.8484385669
  0
SOLID
  8
0
 62
7
  6
CONTINUOUS
 10
15.5534309375
 20
17.2160281647
 11
16.1312136183
 21
16.7968189938
 12
13.3572684648
 22
16.8484385669
 13
13.3572684648
 23
16.8484385669
  0
SOLID
  8
0
 62
7
  6
CONTINUOUS
 10
13.5728037525
 20
16.7887919198
 11
13.3572684648
 21
16.8484385669
 12
16.1312136183
 22
16.7968189938
 13
16.1312136183
 23
16.7968189938
  0
SOLID
  8
0
 62
7
  6
CONTINUOUS
 10
13.1353140403
 20
16.8758140341
 11
12.911745122
 21
16.8703257252
 12
10.1825514228
 22
16.9513459492
 13
10.1825514228
 23
16.9513459492
  0
SOLID
  8
0
 62
7
  6
CONTINUOUS
 10
9.6487863427
 20
16.4773586134
 11
10.1825514228
 21
16.9513459492
 12
12.911745122
 22
16.8703257252
 13
12.911745122
 23
16.8703257252
  0
SOLID
  8
0
 62
7
  6
CONTINUOUS
 10
13.5728037525
 20
16.7887919198
 11
16.1312136183
 21
16.7968189938
 12
13.7772542153
 22
16.6981652625
 13
13.7772542153
 23
16.6981652625
  0
SOLID
  8
0
 62
7
  6
CONTINUOUS
 10
13.7772542153
 20
16.6981652625
 11
16.1312136183
 21
16.7968189938
 12
13.9661941182
 22
16.5785203885
 13
13.9661941182
 23
16.5785203885
  0
SOLID
  8
0
 62
7
  6
CONTINUOUS
 10
13.9661941182
 20
16.5785203885
 11
16.1312136183
 21
16.7968189938
 12
14.1355334828
 22
16.4324472481
 13
14.1355334828
 23
16.4324472481
  0
SOLID
  8
0
 62
7
  6
CONTINUOUS
 10
16.1312136183
 20
16.7968189938
 11
16.6396501209
 21
16.2957586403
 12
14.1355334828
 22
16.4324472481
 13
14.1355334828
 23
16.4324472481
  0
SOLID
  8
0
 62
7
  6
CONTINUOUS
 10
14.2816066232
 20
16.2631078835
 11
14.1355334828
 21
16.4324472481
 12
16.6396501209
 22
16.2957586403
 13
16.6396501209
 23
16.2957586403
  0
SOLID
  8
0
 62
7
  6
CONTINUOUS
 10
14.2816066232
 20
16.2631078835
 11
16.6396501209
 21
16.2957586403
 12
14.4012514972
 22
16.0741679806
 13
14.4012514972
 23
16.0741679806
  0
SOLID
  8
0
 62
7
  6
CONTINUOUS
 10
14.4012514972
 20
16.0741679806
 11
16.6396501209
 21
16.2957586403
 12
15.8254819029
 22
16.0494888329
 13
15.8254819029
 23
16.0494888329
  0
SOLID
  8
0
 62
7
  6
CONTINUOUS
 10
15.8254819029
 20
16.0494888329
 11
16.6396501209
 21
16.2957586403
 12
16.0284911903
 22
15.8395760382
 13
16.0284911903
 23
15.8395760382
  0
SOLID
  8
0
 62
7
  6
CONTINUOUS
 10
16.6396501209
 20
16.2957586403
 11
17.0672575177
 21
15.7241634431
 12
16.0284911903
 22
15.8395760382
 13
16.0284911903
 23
15.8395760382
  0
SOLID
  8
0
 62
7
  6
CONTINUOUS
 10
16.2156030299
 20
15.6153617845
 11
16.0284911903
 21
15.8395760382
 12
17.0672575177
 22
15.7241634431
 13
17.0672575177
 23
15.7241634431
  0
SOLID
  8
0
 62
7
  6
CONTINUOUS
 10
16.2156030299
 20
15.6153617845
 11
17.0672575177
 21
15.7241634431
 12
16.3858151168
 22
15.3780694724
 13
16.3858151168
 23
15.3780694724
  0
SOLID
  8
0
 62
7
  6
CONTINUOUS
 10
16.3858151168
 20
15.3780694724
 11
17.0672575177
 21
15.7241634431
 12
16.5382156731
 22
15.1289699212
 13
16.5382156731
 23
15.1289699212
  0
SOLID
  8
0
 62
7
  6
CONTINUOUS
 10
17.0672575177
 20
15.7241634431
 11
17.4043783883
 21
15.0949427555
 12
16.5382156731
 22
15.1289699212
 13
16.5382156731
 23
15.1289699212
  0
SOLID
  8
0
 62
7
  6
CONTINUOUS
 10
16.6719883323
 20
14.8693813689
 11
16.5382156731
 21
15.1289699212
 12
17.4043783883
 22
15.0949427555
 13
17.4043783883
 23
15.0949427555
  0
SOLID
  8
0
 62
7
  6
CONTINUOUS
 10
16.6719883323
 20
14.8693813689
 11
17.4043783883
 21
15.0949427555
 12
16.7864165123
 22
14.600707407
 13
16.7864165123
 23
14.600707407
  0
SOLID
  8
0
 62
7
  6
CONTINUOUS
 10
17.4043783883
 20
15.0949427555
 11
17.6433989315
 21
14.4223073899
 12
16.7864165123
 22
14.600707407
 13
16.7864165123
 23
14.600707407
  0
SOLID
  8
0
 62
7
  6
CONTINUOUS
 10
16.8808872537
 20
14.3243895617
 11
16.7864165123
 21
14.600707407
 12
17.6433989315
 22
14.4223073899
 13
17.6433989315
 23
14.4223073899
  0
SOLID
  8
0
 62
7
  6
CONTINUOUS
 10
16.8808872537
 20
14.3243895617
 11
17.6433989315
 21
14.4223073899
 12
16.9548945037
 22
14.0418883271
 13
16.9548945037
 23
14.0418883271
  0
SOLID
  8
0
 62
7
  6
CONTINUOUS
 10
16.9548945037
 20
14.0418883271
 11
17.6433989315
 21
14.4223073899
 12
17.0080418265
 22
13.7547400666
 13
17.0080418265
 23
13.7547400666
  0
SOLID
  8
0
 62
7
  6
CONTINUOUS
 10
17.6433989315
 20
14.4223073899
 11
17.7789209201
 21
13.7214486697
 12
17.0080418265
 22
13.7547400666
 13
17.0080418265
 23
13.7547400666
  0
SOLID
  8
0
 62
7
  6
CONTINUOUS
 10
17.0400445268
 20
13.4644716602
 11
17.0080418265
 21
13.7547400666
 12
17.7789209201
 22
13.7214486697
 13
17.7789209201
 23
13.7214486697
  0
SOLID
  8
0
 62
7
  6
CONTINUOUS
 10
17.0400445268
 20
13.4644716602
 11
17.7789209201
 21
13.7214486697
 12
17.0507311753
 22
13.172648847
 13
17.0507311753
 23
13.172648847
  0
SOLID
  8
0
 62
7
  6
CONTINUOUS
 10
17.7789209201
 20
13.7214486697
 11
17.8107311753
 21
13.172648847
 12
17.0507311753
 22
13.172648847
 13
17.0507311753
 23
13.172648847
  0
SOLID
  8
0
 62
7
  6
CONTINUOUS
 10
17.0400445268
 20
12.8808147014
 11
17.0507311753
 21
13.172648847
 12
17.8107311753
 22
13.172648847
 13
17.8107311753
 23
13.172648847
  0
SOLID
  8
0
 62
7
  6
CONTINUOUS
 10
17.0400445268
 20
12.8808147014
 11
17.8107311753
 21
13.172648847
 12
17.0080418265
 22
12.590546295
 13
17.0080418265
 23
12.590546295
  0
SOLID
  8
0
 62
7
  6
CONTINUOUS
 10
17.8107311753
 20
13.172648847
 11
17.7570923169
 21
12.4608219093
 12
17.0080418265
 22
12.590546295
 13
17.0080418265
 23
12.590546295
  0
SOLID
  8
0
 62
7
  6
CONTINUOUS
 10
16.9548945037
 20
12.3033980345
 11
17.0080418265
 21
12.590546295
 12
17.7570923169
 22
12.4608219093
 13
17.7570923169
 23
12.4608219093
  0
SOLID
  8
0
 62
7
  6
CONTINUOUS
 10
16.9548945037
 20
12.3033980345
 11
17.7570923169
 21
12.4608219093
 12
16.8808872537
 22
12.0209062836
 13
16.8808872537
 23
12.0209062836
  0
SOLID
  8
0
 62
7
  6
CONTINUOUS
 10
17.7570923169
 20
12.4608219093
 11
17.5973871636
 21
11.7650752462
 12
16.8808872537
 22
12.0209062836
 13
16.8808872537
 23
12.0209062836
  0
SOLID
  8
0
 62
7
  6
CONTINUOUS
 10
16.7864165123
 20
11.7445789546
 11
16.8808872537
 21
12.0209062836
 12
17.5973871636
 22
11.7650752462
 13
17.5973871636
 23
11.7650752462
  0
SOLID
  8
0
 62
7
  6
CONTINUOUS
 10
16.7864165123
 20
11.7445789546
 11
17.5973871636
 21
11.7650752462
 12
16.6719883323
 22
11.4759049927
 13
16.6719883323
 23
11.4759049927
  0
SOLID
  8
0
 62
7
  6
CONTINUOUS
 10
16.6719883323
 20
11.4759049927
 11
17.5973871636
 21
11.7650752462
 12
16.5382156731
 22
11.2163259241
 13
16.5382156731
 23
11.2163259241
  0
SOLID
  8
0
 62
7
  6
CONTINUOUS
 10
17.5973871636
 20
11.7650752462
 11
17.3352226214
 21
11.1011182386
 12
16.5382156731
 22
11.2163259241
 13
16.5382156731
 23
11.2163259241
  0
SOLID
  8
0
 62
7
  6
CONTINUOUS
 10
16.3858151168
 20
10.9672168892
 11
16.5382156731
 21
11.2163259241
 12
17.3352226214
 22
11.1011182386
 13
17.3352226214
 23
11.1011182386
  0
SOLID
  8
0
 62
7
  6
CONTINUOUS
 10
12.0964533834
 20
16.5326208298
 11
9.6487863427
 21
16.4773586134
 12
12.2792950042
 22
16.6613924279
 13
12.2792950042
 23
16.6613924279
  0
SOLID
  8
0
 62
7
  6
CONTINUOUS
 10
12.2792950042
 20
16.6613924279
 11
9.6487863427
 21
16.4773586134
 12
12.4790523582
 22
16.7619418301
 13
12.4790523582
 23
16.7619418301
  0
SOLID
  8
0
 62
7
  6
CONTINUOUS
 10
12.4790523582
 20
16.7619418301
 11
9.6487863427
 21
16.4773586134
 12
12.6914013019
 22
16.8320924455
 13
12.6914013019
 23
16.8320924455
  0
SOLID
  8
0
 62
7
  6
CONTINUOUS
 10
9.6487863427
 20
16.4773586134
 11
12.911745122
 21
16.8703257252
 12
12.6914013019
 22
16.8320924455
 13
12.6914013019
 23
16.8320924455
  0
SOLID
  8
0
 62
7
  6
CONTINUOUS
 10
12.0964533834
 20
16.5326208298
 11
11.9344854648
 21
16.378414552
 12
9.6487863427
 22
16.4773586134
 13
9.6487863427
 23
16.4773586134
  0
SOLID
  8
0
 62
7
  6
CONTINUOUS
 10
9.1920792946
 20
15.9287350382
 11
9.6487863427
 21
16.4773586134
 12
11.9344854648
 22
16.378414552
 13
11.9344854648
 23
16.378414552
  0
SOLID
  8
0
 62
7
  6
CONTINUOUS
 10
33.627647623
 20
16.1041910818
 11
30.5976735356
 21
16.0982442316
 12
30.7524462788
 22
16.1041910818
 13
30.7524462788
 23
16.1041910818
  0
SOLID
  8
0
 62
7
  6
CONTINUOUS
 10
30.5976735356
 20
16.0982442316
 11
30.6750599072
 21
16.1041910818
 12
30.7524462788
 22
16.1041910818
 13
30.7524462788
 23
16.1041910818
  0
SOLID
  8
0
 62
7
  6
CONTINUOUS
 10
33.627647623
 20
16.1041910818
 11
33.7824203661
 21
16.0982442316
 12
30.5976735356
 22
16.0982442316
 13
30.5976735356
 23
16.0982442316
  0
SOLID
  8
0
 62
7
  6
CONTINUOUS
 10
30.520287164
 20
16.0922888891
 11
30.5976735356
 21
16.0982442316
 12
33.7824203661
 22
16.0982442316
 13
33.7824203661
 23
16.0982442316
  0
SOLID
  8
0
 62
7
  6
CONTINUOUS
 10
33.7824203661
 20
16.0982442316
 11
33.9193347159
 21
16.086333109
 12
30.520287164
 22
16.0922888891
 13
30.520287164
 23
16.0922888891
  0
SOLID
  8
0
 62
7
  6
CONTINUOUS
 10
30.4429007925
 20
16.0803868127
 11
30.520287164
 21
16.0922888891
 12
33.9193347159
 22
16.086333109
 13
33.9193347159
 23
16.086333109
  0
SOLID
  8
0
 62
7
  6
CONTINUOUS
 10
30.4429007925
 20
16.0803868127
 11
33.9193347159
 21
16.086333109
 12
30.3714672187
 22
16.0684752527
 13
30.3714672187
 23
16.0684752527
  0
SOLID
  8
0
 62
7
  6
CONTINUOUS
 10
33.9193347159
 20
16.086333109
 11
34.04434347
 21
16.0625289564
 12
30.3714672187
 22
16.0684752527
 13
30.3714672187
 23
16.0684752527
  0
SOLID
  8
0
 62
7
  6
CONTINUOUS
 10
30.3000336449
 20
16.0565731764
 11
30.3714672187
 21
16.0684752527
 12
34.04434347
 22
16.0625289564
 13
34.04434347
 23
16.0625289564
  0
SOLID
  8
0
 62
7
  6
CONTINUOUS
 10
30.3000336449
 20
16.0565731764
 11
34.04434347
 21
16.0625289564
 12
30.234552869
 22
16.0387153507
 13
30.234552869
 23
16.0387153507
  0
SOLID
  8
0
 62
7
  6
CONTINUOUS
 10
34.04434347
 20
16.0625289564
 11
34.1574466284
 21
16.0387153507
 12
30.234552869
 22
16.0387153507
 13
30.234552869
 23
16.0387153507
  0
SOLID
  8
0
 62
7
  6
CONTINUOUS
 10
30.169072093
 20
16.0149016837
 11
30.234552869
 21
16.0387153507
 12
34.1574466284
 22
16.0387153507
 13
34.1574466284
 23
16.0387153507
  0
SOLID
  8
0
 62
7
  6
CONTINUOUS
 10
34.1574466284
 20
16.0387153507
 11
34.2526913935
 21
15.9970438273
 12
30.169072093
 22
16.0149016837
 13
30.169072093
 23
16.0149016837
  0
SOLID
  8
0
 62
7
  6
CONTINUOUS
 10
30.103591317
 20
15.9910880473
 11
30.169072093
 21
16.0149016837
 12
34.2526913935
 22
15.9970438273
 13
34.2526913935
 23
15.9970438273
  0
SOLID
  8
0
 62
7
  6
CONTINUOUS
 10
30.103591317
 20
15.9910880473
 11
34.2526913935
 21
15.9970438273
 12
30.0381105411
 22
15.9672838946
 13
30.0381105411
 23
15.9672838946
  0
SOLID
  8
0
 62
7
  6
CONTINUOUS
 10
34.2526913935
 20
15.9970438273
 11
34.330077765
 21
15.9553723346
 12
30.0381105411
 22
15.9672838946
 13
30.0381105411
 23
15.9672838946
  0
SOLID
  8
0
 62
7
  6
CONTINUOUS
 10
29.978582563
 20
15.9375144782
 11
30.0381105411
 21
15.9672838946
 12
34.330077765
 22
15.9553723346
 13
34.330077765
 23
15.9553723346
  0
SOLID
  8
0
 62
7
  6
CONTINUOUS
 10
29.978582563
 20
15.9375144782
 11
34.330077765
 21
15.9553723346
 12
29.9190545848
 22
15.9077545456
 13
29.9190545848
 23
15.9077545456
  0
SOLID
  8
0
 62
7
  6
CONTINUOUS
 10
34.330077765
 20
15.9553723346
 11
34.3896057432
 21
15.9017987655
 12
29.9190545848
 22
15.9077545456
 13
29.9190545848
 23
15.9077545456
  0
SOLID
  8
0
 62
7
  6
CONTINUOUS
 10
29.8654794045
 20
15.8720388329
 11
29.9190545848
 21
15.9077545456
 12
34.3896057432
 22
15.9017987655
 13
34.3896057432
 23
15.9017987655
  0
SOLID
  8
0
 62
7
  6
CONTINUOUS
 10
34.3896057432
 20
15.9017987655
 11
34.4372281257
 21
15.8422694165
 12
29.8654794045
 22
15.8720388329
 13
29.8654794045
 23
15.8720388329
  0
SOLID
  8
0
 62
7
  6
CONTINUOUS
 10
29.8119042242
 20
15.8303673401
 11
29.8654794045
 21
15.8720388329
 12
34.4372281257
 22
15.8422694165
 13
34.4372281257
 23
15.8422694165
  0
SOLID
  8
0
 62
7
  6
CONTINUOUS
 10
29.8119042242
 20
15.8303673401
 11
34.4372281257
 21
15.8422694165
 12
29.7583290438
 22
15.7886958474
 13
29.7583290438
 23
15.7886958474
  0
SOLID
  8
0
 62
7
  6
CONTINUOUS
 10
34.4372281257
 20
15.8422694165
 11
34.4788977104
 21
15.7708379911
 12
29.7583290438
 22
15.7886958474
 13
29.7583290438
 23
15.7886958474
  0
SOLID
  8
0
 62
7
  6
CONTINUOUS
 10
29.7107066613
 20
15.7470243547
 11
29.7583290438
 21
15.7886958474
 12
34.4788977104
 22
15.7708379911
 13
34.4788977104
 23
15.7708379911
  0
SOLID
  8
0
 62
7
  6
CONTINUOUS
 10
29.7107066613
 20
15.7470243547
 11
34.4788977104
 21
15.7708379911
 12
29.6630842788
 22
15.6994065657
 13
29.6630842788
 23
15.6994065657
  0
SOLID
  8
0
 62
7
  6
CONTINUOUS
 10
34.4788977104
 20
15.7708379911
 11
34.5146144973
 21
15.6934507857
 12
29.6630842788
 22
15.6994065657
 13
29.6630842788
 23
15.6994065657
  0
SOLID
  8
0
 62
7
  6
CONTINUOUS
 10
29.6214146941
 20
15.6517792929
 11
29.6630842788
 21
15.6994065657
 12
34.5146144973
 22
15.6934507857
 13
34.5146144973
 23
15.6934507857
  0
SOLID
  8
0
 62
7
  6
CONTINUOUS
 10
34.5146144973
 20
15.6934507857
 11
34.5503312842
 21
15.6220193603
 12
29.6214146941
 22
15.6517792929
 13
29.6214146941
 23
15.6517792929
  0
SOLID
  8
0
 62
7
  6
CONTINUOUS
 10
29.5737923116
 20
15.5982057239
 11
29.6214146941
 21
15.6517792929
 12
34.5503312842
 22
15.6220193603
 13
34.5503312842
 23
15.6220193603
  0
SOLID
  8
0
 62
7
  6
CONTINUOUS
 10
29.5737923116
 20
15.5982057239
 11
34.5503312842
 21
15.6220193603
 12
29.5321227269
 22
15.544632252
 13
29.5321227269
 23
15.544632252
  0
SOLID
  8
0
 62
7
  6
CONTINUOUS
 10
34.5503312842
 20
15.6220193603
 11
34.5741424754
 21
15.544632252
 12
29.5321227269
 22
15.544632252
 13
29.5321227269
 23
15.544632252
  0
SOLID
  8
0
 62
7
  6
CONTINUOUS
 10
29.4904531422
 20
15.4791470257
 11
29.5321227269
 21
15.544632252
 12
34.5741424754
 22
15.544632252
 13
34.5741424754
 23
15.544632252
  0
SOLID
  8
0
 62
7
  6
CONTINUOUS
 10
34.5741424754
 20
15.544632252
 11
34.5920008689
 21
15.4612927639
 12
29.4904531422
 22
15.4791470257
 13
29.4904531422
 23
15.4791470257
  0
SOLID
  8
0
 62
7
  6
CONTINUOUS
 10
29.4487835575
 20
15.4196271604
 11
29.4904531422
 21
15.4791470257
 12
34.5920008689
 22
15.4612927639
 13
34.5920008689
 23
15.4612927639
  0
SOLID
  8
0
 62
7
  6
CONTINUOUS
 10
34.5920008689
 20
15.4612927639
 11
34.6098592623
 21
15.3779556677
 12
29.4487835575
 22
15.4196271604
 13
29.4487835575
 23
15.4196271604
  0
SOLID
  8
0
 62
7
  6
CONTINUOUS
 10
29.4130667706
 20
15.3541420313
 11
29.4487835575
 21
15.4196271604
 12
34.6098592623
 22
15.3779556677
 13
34.6098592623
 23
15.3779556677
  0
SOLID
  8
0
 62
7
  6
CONTINUOUS
 10
34.6098592623
 20
15.3779556677
 11
34.6158120601
 21
15.2946126822
 12
29.4130667706
 22
15.3541420313
 13
29.4130667706
 23
15.3541420313
  0
SOLID
  8
0
 62
7
  6
CONTINUOUS
 10
29.3713971859
 20
15.2827106059
 11
29.4130667706
 21
15.3541420313
 12
34.6158120601
 22
15.2946126822
 13
34.6158120601
 23
15.2946126822
  0
SOLID
  8
0
 62
7
  6
CONTINUOUS
 10
29.3713971859
 20
15.2827106059
 11
34.6158120601
 21
15.2946126822
 12
31.5798851749
 22
15.2469945562
 13
31.5798851749
 23
15.2469945562
  0
SOLID
  8
0
 62
7
  6
CONTINUOUS
 10
31.5798851749
 20
15.2469945562
 11
34.6158120601
 21
15.2946126822
 12
32.4132768689
 22
15.2469945562
 13
32.4132768689
 23
15.2469945562
  0
SOLID
  8
0
 62
7
  6
CONTINUOUS
 10
32.4132768689
 20
15.2469945562
 11
34.6158120601
 21
15.2946126822
 12
32.4847104427
 22
15.2410391132
 13
32.4847104427
 23
15.2410391132
  0
SOLID
  8
0
 62
7
  6
CONTINUOUS
 10
32.4847104427
 20
15.2410391132
 11
34.6158120601
 21
15.2946126822
 12
32.5442384208
 22
15.2291370369
 13
32.5442384208
 23
15.2291370369
  0
SOLID
  8
0
 62
7
  6
CONTINUOUS
 10
32.5442384208
 20
15.2291370369
 11
34.6158120601
 21
15.2946126822
 12
32.5978136011
 22
15.2112791805
 13
32.5978136011
 23
15.2112791805
  0
SOLID
  8
0
 62
7
  6
CONTINUOUS
 10
34.6158120601
 20
15.2946126822
 11
34.6217648579
 21
15.2053234005
 12
32.5978136011
 22
15.2112791805
 13
32.5978136011
 23
15.2112791805
  0
SOLID
  8
0
 62
7
  6
CONTINUOUS
 10
32.6454359837
 20
15.1815097641
 11
32.5978136011
 21
15.2112791805
 12
34.6217648579
 22
15.2053234005
 13
34.6217648579
 23
15.2053234005
  0
SOLID
  8
0
 62
7
  6
CONTINUOUS
 10
34.6217648579
 20
15.2053234005
 11
32.6811527705
 21
15.1457944798
 12
32.6454359837
 22
15.1815097641
 13
32.6454359837
 23
15.1815097641
  0
SOLID
  8
0
 62
7
  6
CONTINUOUS
 10
39.6340206174
 20
16.1041912252
 11
36.4611793825
 21
16.0982446691
 12
36.6219049235
 22
16.1041912252
 13
36.6219049235
 23
16.1041912252
  0
SOLID
  8
0
 62
7
  6
CONTINUOUS
 10
36.4611793825
 20
16.0982446691
 11
36.5385657541
 21
16.1041912252
 12
36.6219049235
 22
16.1041912252
 13
36.6219049235
 23
16.1041912252
  0
SOLID
  8
0
 62
7
  6
CONTINUOUS
 10
36.4611793825
 20
16.0982446691
 11
39.6340206174
 21
16.1041912252
 12
36.3837930109
 22
16.0922888891
 13
36.3837930109
 23
16.0922888891
  0
SOLID
  8
0
 62
7
  6
CONTINUOUS
 10
36.3837930109
 20
16.0922888891
 11
39.6340206174
 21
16.1041912252
 12
36.3123594371
 22
16.0803868127
 13
36.3123594371
 23
16.0803868127
  0
SOLID
  8
0
 62
7
  6
CONTINUOUS
 10
36.3123594371
 20
16.0803868127
 11
39.6340206174
 21
16.1041912252
 12
36.2349730655
 22
16.0684752527
 13
36.2349730655
 23
16.0684752527
  0
SOLID
  8
0
 62
7
  6
CONTINUOUS
 10
36.2349730655
 20
16.0684752527
 11
39.6340206174
 21
16.1041912252
 12
36.1694922896
 22
16.0565731764
 13
36.1694922896
 23
16.0565731764
  0
SOLID
  8
0
 62
7
  6
CONTINUOUS
 10
36.1694922896
 20
16.0565731764
 11
39.6340206174
 21
16.1041912252
 12
36.0980587158
 22
16.03871532
 13
36.0980587158
 23
16.03871532
  0
SOLID
  8
0
 62
7
  6
CONTINUOUS
 10
36.0980587158
 20
16.03871532
 11
39.6340206174
 21
16.1041912252
 12
36.0325779399
 22
16.0149016837
 13
36.0325779399
 23
16.0149016837
  0
SOLID
  8
0
 62
7
  6
CONTINUOUS
 10
36.0325779399
 20
16.0149016837
 11
39.6340206174
 21
16.1041912252
 12
35.9670971639
 22
15.9910880473
 13
35.9670971639
 23
15.9910880473
  0
SOLID
  8
0
 62
7
  6
CONTINUOUS
 10
35.9670971639
 20
15.9910880473
 11
39.6340206174
 21
16.1041912252
 12
35.901616388
 22
15.9672838946
 13
35.901616388
 23
15.9672838946
  0
SOLID
  8
0
 62
7
  6
CONTINUOUS
 10
35.901616388
 20
15.9672838946
 11
39.6340206174
 21
16.1041912252
 12
35.8420884098
 22
15.9375144782
 13
35.8420884098
 23
15.9375144782
  0
SOLID
  8
0
 62
7
  6
CONTINUOUS
 10
35.8420884098
 20
15.9375144782
 11
39.6340206174
 21
16.1041912252
 12
35.7825604317
 22
15.9077545456
 13
35.7825604317
 23
15.9077545456
  0
SOLID
  8
0
 62
7
  6
CONTINUOUS
 10
35.7825604317
 20
15.9077545456
 11
39.6340206174
 21
16.1041912252
 12
35.7289852513
 22
15.8720388329
 13
35.7289852513
 23
15.8720388329
  0
SOLID
  8
0
 62
7
  6
CONTINUOUS
 10
35.7289852513
 20
15.8720388329
 11
39.6340206174
 21
16.1041912252
 12
35.675410071
 22
15.8303673401
 13
35.675410071
 23
15.8303673401
  0
SOLID
  8
0
 62
7
  6
CONTINUOUS
 10
35.675410071
 20
15.8303673401
 11
39.6340206174
 21
16.1041912252
 12
35.6218348907
 22
15.7886958474
 13
35.6218348907
 23
15.7886958474
  0
SOLID
  8
0
 62
7
  6
CONTINUOUS
 10
35.6218348907
 20
15.7886958474
 11
39.6340206174
 21
16.1041912252
 12
35.5742125082
 22
15.7470243547
 13
35.5742125082
 23
15.7470243547
  0
SOLID
  8
0
 62
7
  6
CONTINUOUS
 10
35.5742125082
 20
15.7470243547
 11
39.6340206174
 21
16.1041912252
 12
35.5325429235
 22
15.6994065657
 13
35.5325429235
 23
15.6994065657
  0
SOLID
  8
0
 62
7
  6
CONTINUOUS
 10
35.5325429235
 20
15.6994065657
 11
39.6340206174
 21
16.1041912252
 12
35.484920541
 22
15.6517792929
 13
35.484920541
 23
15.6517792929
  0
SOLID
  8
0
 62
7
  6
CONTINUOUS
 10
35.484920541
 20
15.6517792929
 11
39.6340206174
 21
16.1041912252
 12
35.4432509563
 22
15.5982057239
 13
35.4432509563
 23
15.5982057239
  0
SOLID
  8
0
 62
7
  6
CONTINUOUS
 10
35.4432509563
 20
15.5982057239
 11
39.6340206174
 21
16.1041912252
 12
35.4015813716
 22
15.5446321548
 13
35.4015813716
 23
15.5446321548
  0
SOLID
  8
0
 62
7
  6
CONTINUOUS
 10
35.4015813716
 20
15.5446321548
 11
39.6340206174
 21
16.1041912252
 12
35.3599117869
 22
15.4791470257
 13
35.3599117869
 23
15.4791470257
  0
SOLID
  8
0
 62
7
  6
CONTINUOUS
 10
35.3599117869
 20
15.4791470257
 11
39.6340206174
 21
16.1041912252
 12
35.3182422022
 22
15.4196271604
 13
35.3182422022
 23
15.4196271604
  0
SOLID
  8
0
 62
7
  6
CONTINUOUS
 10
35.3182422022
 20
15.4196271604
 11
39.6340206174
 21
16.1041912252
 12
35.2825254153
 22
15.3541420313
 13
35.2825254153
 23
15.3541420313
  0
SOLID
  8
0
 62
7
  6
CONTINUOUS
 10
35.2825254153
 20
15.3541420313
 11
39.6340206174
 21
16.1041912252
 12
35.2468086284
 22
15.2827106059
 13
35.2468086284
 23
15.2827106059
  0
SOLID
  8
0
 62
7
  6
CONTINUOUS
 10
35.2468086284
 20
15.2827106059
 11
39.6340206174
 21
16.1041912252
 12
37.4493438196
 22
15.2469947635
 13
37.4493438196
 23
15.2469947635
  0
SOLID
  8
0
 62
7
  6
CONTINUOUS
 10
37.4493438196
 20
15.2469947635
 11
39.6340206174
 21
16.1041912252
 12
38.8244401147
 22
15.2469947635
 13
38.8244401147
 23
15.2469947635
  0
SOLID
  8
0
 62
7
  6
CONTINUOUS
 10
38.8244401147
 20
15.2469947635
 11
39.6340206174
 21
16.1041912252
 12
38.8899208906
 22
15.2469947635
 13
38.8899208906
 23
15.2469947635
  0
SOLID
  8
0
 62
7
  6
CONTINUOUS
 10
38.8899208906
 20
15.2469947635
 11
39.6340206174
 21
16.1041912252
 12
38.943496071
 22
15.2469947635
 13
38.943496071
 23
15.2469947635
  0
SOLID
  8
0
 62
7
  6
CONTINUOUS
 10
38.943496071
 20
15.2469947635
 11
39.6340206174
 21
16.1041912252
 12
39.0030240491
 22
15.2410391331
 13
39.0030240491
 23
15.2410391331
  0
SOLID
  8
0
 62
7
  6
CONTINUOUS
 10
39.0030240491
 20
15.2410391331
 11
39.6340206174
 21
16.1041912252
 12
39.0506464316
 22
15.2410391331
 13
39.0506464316
 23
15.2410391331
  0
SOLID
  8
0
 62
7
  6
CONTINUOUS
 10
39.0506464316
 20
15.2410391331
 11
39.6340206174
 21
16.1041912252
 12
39.0982688141
 22
15.2350833332
 13
39.0982688141
 23
15.2350833332
  0
SOLID
  8
0
 62
7
  6
CONTINUOUS
 10
39.0982688141
 20
15.2350833332
 11
39.6340206174
 21
16.1041912252
 12
39.1399383988
 22
15.2291373968
 13
39.1399383988
 23
15.2291373968
  0
SOLID
  8
0
 62
7
  6
CONTINUOUS
 10
39.1399383988
 20
15.2291373968
 11
39.6340206174
 21
16.1041912252
 12
39.1756551857
 22
15.2291373968
 13
39.1756551857
 23
15.2291373968
  0
SOLID
  8
0
 62
7
  6
CONTINUOUS
 10
39.1756551857
 20
15.2291373968
 11
39.6340206174
 21
16.1041912252
 12
39.2113719726
 22
15.2291373968
 13
39.2113719726
 23
15.2291373968
  0
SOLID
  8
0
 62
7
  6
CONTINUOUS
 10
39.2113719726
 20
15.2291373968
 11
39.6340206174
 21
16.1041912252
 12
39.229230366
 22
15.2291373968
 13
39.229230366
 23
15.2291373968
  0
SOLID
  8
0
 62
7
  6
CONTINUOUS
 10
39.229230366
 20
15.2291373968
 11
39.6340206174
 21
16.1041912252
 12
39.2530415573
 22
15.2231812568
 13
39.2530415573
 23
15.2231812568
  0
SOLID
  8
0
 62
7
  6
CONTINUOUS
 10
39.2530415573
 20
15.2231812568
 11
39.6340206174
 21
16.1041912252
 12
39.2768527485
 22
15.2112791805
 13
39.2768527485
 23
15.2112791805
  0
SOLID
  8
0
 62
7
  6
CONTINUOUS
 10
39.2768527485
 20
15.2112791805
 11
39.6340206174
 21
16.1041912252
 12
39.3066167376
 22
15.2053234005
 13
39.3066167376
 23
15.2053234005
  0
SOLID
  8
0
 62
7
  6
CONTINUOUS
 10
39.3066167376
 20
15.2053234005
 11
39.6340206174
 21
16.1041912252
 12
39.3363807267
 22
15.1993676205
 13
39.3363807267
 23
15.1993676205
  0
SOLID
  8
0
 62
7
  6
CONTINUOUS
 10
39.3363807267
 20
15.1993676205
 11
39.6340206174
 21
16.1041912252
 12
39.3661447157
 22
15.1874640644
 13
39.3661447157
 23
15.1874640644
  0
SOLID
  8
0
 62
7
  6
CONTINUOUS
 10
39.3661447157
 20
15.1874640644
 11
39.6340206174
 21
16.1041912252
 12
39.3959087048
 22
15.1815094977
 13
39.3959087048
 23
15.1815094977
  0
SOLID
  8
0
 62
7
  6
CONTINUOUS
 10
39.3959087048
 20
15.1815094977
 11
39.6340206174
 21
16.1041912252
 12
39.4197198961
 22
15.1815094977
 13
39.4197198961
 23
15.1815094977
  0
SOLID
  8
0
 62
7
  6
CONTINUOUS
 10
39.4197198961
 20
15.1815094977
 11
39.6340206174
 21
16.1041912252
 12
39.455436683
 22
15.1755539841
 13
39.455436683
 23
15.1755539841
  0
SOLID
  8
0
 62
7
  6
CONTINUOUS
 10
39.455436683
 20
15.1755539841
 11
39.6340206174
 21
16.1041912252
 12
39.4971062677
 22
15.169605671
 13
39.4971062677
 23
15.169605671
  0
SOLID
  8
0
 62
7
  6
CONTINUOUS
 10
39.4971062677
 20
15.169605671
 11
39.6340206174
 21
16.1041912252
 12
39.5387758524
 22
15.1576961277
 13
39.5387758524
 23
15.1576961277
  0
SOLID
  8
0
 62
7
  6
CONTINUOUS
 10
39.6340206174
 20
16.1041912252
 11
39.5685398414
 21
15.1517472776
 12
39.5387758524
 22
15.1576961277
 13
39.5387758524
 23
15.1576961277
  0
SOLID
  8
0
 62
7
  6
CONTINUOUS
 10
44.3784004752
 20
16.1041911449
 11
41.3484263878
 21
16.0982447764
 12
41.5091519288
 22
16.1041911449
 13
41.5091519288
 23
16.1041911449
  0
SOLID
  8
0
 62
7
  6
CONTINUOUS
 10
41.3484263878
 20
16.0982447764
 11
41.4258127594
 21
16.1041911449
 12
41.5091519288
 22
16.1041911449
 13
41.5091519288
 23
16.1041911449
  0
SOLID
  8
0
 62
7
  6
CONTINUOUS
 10
44.3784004752
 20
16.1041911449
 11
44.5331732184
 21
16.0982447764
 12
41.3484263878
 22
16.0982447764
 13
41.3484263878
 23
16.0982447764
  0
SOLID
  8
0
 62
7
  6
CONTINUOUS
 10
41.2710400163
 20
16.0922888891
 11
41.3484263878
 21
16.0982447764
 12
44.5331732184
 22
16.0982447764
 13
44.5331732184
 23
16.0982447764
  0
SOLID
  8
0
 62
7
  6
CONTINUOUS
 10
44.5331732184
 20
16.0982447764
 11
44.6760403659
 21
16.086333109
 12
41.2710400163
 22
16.0922888891
 13
41.2710400163
 23
16.0922888891
  0
SOLID
  8
0
 62
7
  6
CONTINUOUS
 10
41.1996064425
 20
16.0803868127
 11
41.2710400163
 21
16.0922888891
 12
44.6760403659
 22
16.086333109
 13
44.6760403659
 23
16.086333109
  0
SOLID
  8
0
 62
7
  6
CONTINUOUS
 10
41.1996064425
 20
16.0803868127
 11
44.6760403659
 21
16.086333109
 12
41.1222200709
 22
16.0684752527
 13
41.1222200709
 23
16.0684752527
  0
SOLID
  8
0
 62
7
  6
CONTINUOUS
 10
44.6760403659
 20
16.086333109
 11
44.80104912
 21
16.0625289564
 12
41.1222200709
 22
16.0684752527
 13
41.1222200709
 23
16.0684752527
  0
SOLID
  8
0
 62
7
  6
CONTINUOUS
 10
41.0507864971
 20
16.0506173963
 11
41.1222200709
 21
16.0684752527
 12
44.80104912
 22
16.0625289564
 13
44.80104912
 23
16.0625289564
  0
SOLID
  8
0
 62
7
  6
CONTINUOUS
 10
41.0507864971
 20
16.0506173963
 11
44.80104912
 21
16.0625289564
 12
40.9853057212
 22
16.0327595516
 13
40.9853057212
 23
16.0327595516
  0
SOLID
  8
0
 62
7
  6
CONTINUOUS
 10
44.80104912
 20
16.0625289564
 11
44.9141522785
 21
16.0327595516
 12
40.9853057212
 22
16.0327595516
 13
40.9853057212
 23
16.0327595516
  0
SOLID
  8
0
 62
7
  6
CONTINUOUS
 10
40.9138721474
 20
16.0089501628
 11
40.9853057212
 21
16.0327595516
 12
44.9141522785
 22
16.0327595516
 13
44.9141522785
 23
16.0327595516
  0
SOLID
  8
0
 62
7
  6
CONTINUOUS
 10
44.9141522785
 20
16.0327595516
 11
45.0093970435
 21
15.9910880473
 12
40.9138721474
 22
16.0089501628
 13
40.9138721474
 23
16.0089501628
  0
SOLID
  8
0
 62
7
  6
CONTINUOUS
 10
40.8483913715
 20
15.9851389715
 11
40.9138721474
 21
16.0089501628
 12
45.0093970435
 22
15.9910880473
 13
45.0093970435
 23
15.9910880473
  0
SOLID
  8
0
 62
7
  6
CONTINUOUS
 10
40.8483913715
 20
15.9851389715
 11
45.0093970435
 21
15.9910880473
 12
40.7888633933
 22
15.9613277803
 13
40.7888633933
 23
15.9613277803
  0
SOLID
  8
0
 62
7
  6
CONTINUOUS
 10
45.0093970435
 20
15.9910880473
 11
45.0867834151
 21
15.9494221847
 12
40.7888633933
 22
15.9613277803
 13
40.7888633933
 23
15.9613277803
  0
SOLID
  8
0
 62
7
  6
CONTINUOUS
 10
40.7293354152
 20
15.9315637912
 11
40.7888633933
 21
15.9613277803
 12
45.0867834151
 22
15.9494221847
 13
45.0867834151
 23
15.9494221847
  0
SOLID
  8
0
 62
7
  6
CONTINUOUS
 10
40.7293354152
 20
15.9315637912
 11
45.0867834151
 21
15.9494221847
 12
40.669807437
 22
15.8958427336
 13
40.669807437
 23
15.8958427336
  0
SOLID
  8
0
 62
7
  6
CONTINUOUS
 10
45.0867834151
 20
15.9494221847
 11
45.1463113932
 21
15.8958427336
 12
40.669807437
 22
15.8958427336
 13
40.669807437
 23
15.8958427336
  0
SOLID
  8
0
 62
7
  6
CONTINUOUS
 10
40.6162322567
 20
15.8660830528
 11
40.669807437
 21
15.8958427336
 12
45.1463113932
 22
15.8958427336
 13
45.1463113932
 23
15.8958427336
  0
SOLID
  8
0
 62
7
  6
CONTINUOUS
 10
45.1463113932
 20
15.8958427336
 11
45.1879809779
 21
15.8422694165
 12
40.6162322567
 22
15.8660830528
 13
40.6162322567
 23
15.8660830528
  0
SOLID
  8
0
 62
7
  6
CONTINUOUS
 10
40.5626570764
 20
15.8244115601
 11
40.6162322567
 21
15.8660830528
 12
45.1879809779
 22
15.8422694165
 13
45.1879809779
 23
15.8422694165
  0
SOLID
  8
0
 62
7
  6
CONTINUOUS
 10
40.5626570764
 20
15.8244115601
 11
45.1879809779
 21
15.8422694165
 12
40.5090818961
 22
15.7886958474
 13
40.5090818961
 23
15.7886958474
  0
SOLID
  8
0
 62
7
  6
CONTINUOUS
 10
45.1879809779
 20
15.8422694165
 11
45.2236977648
 21
15.7708379911
 12
40.5090818961
 22
15.7886958474
 13
40.5090818961
 23
15.7886958474
  0
SOLID
  8
0
 62
7
  6
CONTINUOUS
 10
40.4614595135
 20
15.7470243547
 11
40.5090818961
 21
15.7886958474
 12
45.2236977648
 22
15.7708379911
 13
45.2236977648
 23
15.7708379911
  0
SOLID
  8
0
 62
7
  6
CONTINUOUS
 10
40.4614595135
 20
15.7470243547
 11
45.2236977648
 21
15.7708379911
 12
40.4197899288
 22
15.7053574743
 13
40.4197899288
 23
15.7053574743
  0
SOLID
  8
0
 62
7
  6
CONTINUOUS
 10
45.2236977648
 20
15.7708379911
 11
45.2594145517
 21
15.6994065657
 12
40.4197899288
 22
15.7053574743
 13
40.4197899288
 23
15.7053574743
  0
SOLID
  8
0
 62
7
  6
CONTINUOUS
 10
40.3781203441
 20
15.6577350918
 11
40.4197899288
 21
15.7053574743
 12
45.2594145517
 22
15.6994065657
 13
45.2594145517
 23
15.6994065657
  0
SOLID
  8
0
 62
7
  6
CONTINUOUS
 10
45.2594145517
 20
15.6994065657
 11
45.2951313386
 21
15.6279711027
 12
40.3781203441
 22
15.6577350918
 13
40.3781203441
 23
15.6577350918
  0
SOLID
  8
0
 62
7
  6
CONTINUOUS
 10
40.3304979616
 20
15.6041599114
 11
40.3781203441
 21
15.6577350918
 12
45.2951313386
 22
15.6279711027
 13
45.2951313386
 23
15.6279711027
  0
SOLID
  8
0
 62
7
  6
CONTINUOUS
 10
40.3304979616
 20
15.6041599114
 11
45.2951313386
 21
15.6279711027
 12
40.2888283769
 22
15.5505847311
 13
40.2888283769
 23
15.5505847311
  0
SOLID
  8
0
 62
7
  6
CONTINUOUS
 10
45.2951313386
 20
15.6279711027
 11
45.3189425298
 21
15.5446321548
 12
40.2888283769
 22
15.5505847311
 13
40.2888283769
 23
15.5505847311
  0
SOLID
  8
0
 62
7
  6
CONTINUOUS
 10
40.25311159
 20
15.491056753
 11
40.2888283769
 21
15.5505847311
 12
45.3189425298
 22
15.5446321548
 13
45.3189425298
 23
15.5446321548
  0
SOLID
  8
0
 62
7
  6
CONTINUOUS
 10
45.3189425298
 20
15.5446321548
 11
45.3427537211
 21
15.4672455617
 12
40.25311159
 22
15.491056753
 13
40.25311159
 23
15.491056753
  0
SOLID
  8
0
 62
7
  6
CONTINUOUS
 10
40.2114420053
 20
15.425575977
 11
40.25311159
 21
15.491056753
 12
45.3427537211
 22
15.4672455617
 13
45.3427537211
 23
15.4672455617
  0
SOLID
  8
0
 62
7
  6
CONTINUOUS
 10
45.3427537211
 20
15.4672455617
 11
45.3606121145
 21
15.3779556677
 12
40.2114420053
 22
15.425575977
 13
40.2114420053
 23
15.425575977
  0
SOLID
  8
0
 62
7
  6
CONTINUOUS
 10
40.1697724206
 20
15.3600952011
 11
40.2114420053
 21
15.425575977
 12
45.3606121145
 22
15.3779556677
 13
45.3606121145
 23
15.3779556677
  0
SOLID
  8
0
 62
7
  6
CONTINUOUS
 10
45.3606121145
 20
15.3779556677
 11
45.3725177102
 21
15.2946126822
 12
40.1697724206
 22
15.3600952011
 13
40.1697724206
 23
15.3600952011
  0
SOLID
  8
0
 62
7
  6
CONTINUOUS
 10
40.1340556338
 20
15.2886569022
 11
40.1697724206
 21
15.3600952011
 12
45.3725177102
 22
15.2946126822
 13
45.3725177102
 23
15.2946126822
  0
SOLID
  8
0
 62
7
  6
CONTINUOUS
 10
40.1340556338
 20
15.2886569022
 11
45.3725177102
 21
15.2946126822
 12
42.336590825
 22
15.2469944533
 13
42.336590825
 23
15.2469944533
  0
SOLID
  8
0
 62
7
  6
CONTINUOUS
 10
42.336590825
 20
15.2469944533
 11
45.3725177102
 21
15.2946126822
 12
43.1640297211
 22
15.2469944533
 13
43.1640297211
 23
15.2469944533
  0
SOLID
  8
0
 62
7
  6
CONTINUOUS
 10
43.1640297211
 20
15.2469944533
 11
45.3725177102
 21
15.2946126822
 12
43.2414160927
 22
15.2410391132
 13
43.2414160927
 23
15.2410391132
  0
SOLID
  8
0
 62
7
  6
CONTINUOUS
 10
43.2414160927
 20
15.2410391132
 11
45.3725177102
 21
15.2946126822
 12
43.3068968687
 22
15.2231812568
 13
43.3068968687
 23
15.2231812568
  0
SOLID
  8
0
 62
7
  6
CONTINUOUS
 10
45.3725177102
 20
15.2946126822
 11
45.378470508
 21
15.2053234005
 12
43.3068968687
 22
15.2231812568
 13
43.3068968687
 23
15.2231812568
  0
SOLID
  8
0
 62
7
  6
CONTINUOUS
 10
43.360472049
 20
15.1993676205
 11
43.3068968687
 21
15.2231812568
 12
45.378470508
 22
15.2053234005
 13
45.378470508
 23
15.2053234005
  0
SOLID
  8
0
 62
7
  6
CONTINUOUS
 10
43.360472049
 20
15.1993676205
 11
45.378470508
 21
15.2053234005
 12
43.4080944315
 22
15.1576961277
 13
43.4080944315
 23
15.1576961277
  0
SOLID
  8
0
 62
7
  6
CONTINUOUS
 10
45.378470508
 20
15.2053234005
 11
45.378470508
 21
15.1279360863
 12
43.4080944315
 22
15.1576961277
 13
43.4080944315
 23
15.1576961277
  0
SOLID
  8
0
 62
7
  6
CONTINUOUS
 10
20.9898578637
 20
16.0625280604
 11
20.9779522681
 21
16.1041898298
 12
23.2102514483
 22
16.1041898298
 13
23.2102514483
 23
16.1041898298
  0
SOLID
  8
0
 62
7
  6
CONTINUOUS
 10
23.2102514483
 20
16.1041898298
 11
23.1864402571
 21
16.0625280604
 12
20.9898578637
 22
16.0625280604
 13
20.9898578637
 23
16.0625280604
  0
SOLID
  8
0
 62
7
  6
CONTINUOUS
 10
20.9958106615
 20
16.0149021258
 11
20.9898578637
 21
16.0625280604
 12
23.1864402571
 22
16.0625280604
 13
23.1864402571
 23
16.0625280604
  0
SOLID
  8
0
 62
7
  6
CONTINUOUS
 10
23.1864402571
 20
16.0625280604
 11
23.156676268
 21
16.0149021258
 12
20.9958106615
 22
16.0149021258
 13
20.9958106615
 23
16.0149021258
  0
SOLID
  8
0
 62
7
  6
CONTINUOUS
 10
21.0077162571
 20
15.9672849299
 11
20.9958106615
 21
16.0149021258
 12
23.156676268
 22
16.0149021258
 13
23.156676268
 23
16.0149021258
  0
SOLID
  8
0
 62
7
  6
CONTINUOUS
 10
23.156676268
 20
16.0149021258
 11
23.1328650768
 21
15.9672849299
 12
21.0077162571
 22
15.9672849299
 13
21.0077162571
 23
15.9672849299
  0
SOLID
  8
0
 62
7
  6
CONTINUOUS
 10
21.013669055
 20
15.9196566219
 11
21.0077162571
 21
15.9672849299
 12
23.1328650768
 22
15.9672849299
 13
23.1328650768
 23
15.9672849299
  0
SOLID
  8
0
 62
7
  6
CONTINUOUS
 10
23.1328650768
 20
15.9672849299
 11
23.1090538855
 21
15.9137053978
 12
21.013669055
 22
15.9196566219
 13
21.013669055
 23
15.9196566219
  0
SOLID
  8
0
 62
7
  6
CONTINUOUS
 10
21.0196218528
 20
15.8720388329
 11
21.013669055
 21
15.9196566219
 12
23.1090538855
 22
15.9137053978
 13
23.1090538855
 23
15.9137053978
  0
SOLID
  8
0
 62
7
  6
CONTINUOUS
 10
23.1090538855
 20
15.9137053978
 11
23.0852426943
 21
15.8660830528
 12
21.0196218528
 22
15.8720388329
 13
21.0196218528
 23
15.8720388329
  0
SOLID
  8
0
 62
7
  6
CONTINUOUS
 10
21.0196218528
 20
15.8244115601
 11
21.0196218528
 21
15.8720388329
 12
23.0852426943
 22
15.8660830528
 13
23.0852426943
 23
15.8660830528
  0
SOLID
  8
0
 62
7
  6
CONTINUOUS
 10
23.0852426943
 20
15.8660830528
 11
23.0673843008
 21
15.8184606327
 12
21.0196218528
 22
15.8244115601
 13
21.0196218528
 23
15.8244115601
  0
SOLID
  8
0
 62
7
  6
CONTINUOUS
 10
21.0255746506
 20
15.7827400674
 11
21.0196218528
 21
15.8244115601
 12
23.0673843008
 22
15.8184606327
 13
23.0673843008
 23
15.8184606327
  0
SOLID
  8
0
 62
7
  6
CONTINUOUS
 10
23.0673843008
 20
15.8184606327
 11
23.0435731096
 21
15.7708379911
 12
21.0255746506
 22
15.7827400674
 13
21.0255746506
 23
15.7827400674
  0
SOLID
  8
0
 62
7
  6
CONTINUOUS
 10
21.0255746506
 20
15.7470243547
 11
21.0255746506
 21
15.7827400674
 12
23.0435731096
 22
15.7708379911
 13
23.0435731096
 23
15.7708379911
  0
SOLID
  8
0
 62
7
  6
CONTINUOUS
 10
21.0255746506
 20
15.7470243547
 11
23.0435731096
 21
15.7708379911
 12
21.0255746506
 22
15.7232216772
 13
21.0255746506
 23
15.7232216772
  0
SOLID
  8
0
 62
7
  6
CONTINUOUS
 10
23.0435731096
 20
15.7708379911
 11
23.0257147161
 21
15.7232216772
 12
21.0255746506
 22
15.7232216772
 13
21.0255746506
 23
15.7232216772
  0
SOLID
  8
0
 62
7
  6
CONTINUOUS
 10
21.0255746506
 20
15.6934507857
 11
21.0255746506
 21
15.7232216772
 12
23.0257147161
 22
15.7232216772
 13
23.0257147161
 23
15.7232216772
  0
SOLID
  8
0
 62
7
  6
CONTINUOUS
 10
23.0257147161
 20
15.7232216772
 11
23.0078563227
 21
15.6755934852
 12
21.0255746506
 22
15.6934507857
 13
21.0255746506
 23
15.6934507857
  0
SOLID
  8
0
 62
7
  6
CONTINUOUS
 10
21.0196218528
 20
15.6696371493
 11
21.0255746506
 21
15.6934507857
 12
23.0078563227
 22
15.6755934852
 13
23.0078563227
 23
15.6755934852
  0
SOLID
  8
0
 62
7
  6
CONTINUOUS
 10
21.0196218528
 20
15.6696371493
 11
23.0078563227
 21
15.6755934852
 12
21.0196218528
 22
15.6458329966
 13
21.0196218528
 23
15.6458329966
  0
SOLID
  8
0
 62
7
  6
CONTINUOUS
 10
21.0196218528
 20
15.6458329966
 11
23.0078563227
 21
15.6755934852
 12
21.013669055
 22
15.6220187509
 13
21.013669055
 23
15.6220187509
  0
SOLID
  8
0
 62
7
  6
CONTINUOUS
 10
23.0078563227
 20
15.6755934852
 11
22.9840451314
 21
15.6220187509
 12
21.013669055
 22
15.6220187509
 13
21.013669055
 23
15.6220187509
  0
SOLID
  8
0
 62
7
  6
CONTINUOUS
 10
21.0077162571
 20
15.5982057239
 11
21.013669055
 21
15.6220187509
 12
22.9840451314
 22
15.6220187509
 13
22.9840451314
 23
15.6220187509
  0
SOLID
  8
0
 62
7
  6
CONTINUOUS
 10
21.0077162571
 20
15.5982057239
 11
22.9840451314
 21
15.6220187509
 12
21.0077162571
 22
15.5743920875
 13
21.0077162571
 23
15.5743920875
  0
SOLID
  8
0
 62
7
  6
CONTINUOUS
 10
22.9840451314
 20
15.6220187509
 11
22.9602339402
 21
15.5624903267
 12
21.0077162571
 22
15.5743920875
 13
21.0077162571
 23
15.5743920875
  0
SOLID
  8
0
 62
7
  6
CONTINUOUS
 10
21.0077162571
 20
15.5565342312
 11
21.0077162571
 21
15.5743920875
 12
22.9602339402
 22
15.5624903267
 13
22.9602339402
 23
15.5624903267
  0
SOLID
  8
0
 62
7
  6
CONTINUOUS
 10
21.0077162571
 20
15.5565342312
 11
22.9602339402
 21
15.5624903267
 12
21.0077162571
 22
15.5327300785
 13
21.0077162571
 23
15.5327300785
  0
SOLID
  8
0
 62
7
  6
CONTINUOUS
 10
21.0077162571
 20
15.5327300785
 11
22.9602339402
 21
15.5624903267
 12
21.0017634593
 22
15.5089164421
 13
21.0017634593
 23
15.5089164421
  0
SOLID
  8
0
 62
7
  6
CONTINUOUS
 10
22.9602339402
 20
15.5624903267
 11
22.9423755467
 21
15.5029606621
 12
21.0017634593
 22
15.5089164421
 13
21.0017634593
 23
15.5089164421
  0
SOLID
  8
0
 62
7
  6
CONTINUOUS
 10
20.9958106615
 20
15.4732007294
 11
21.0017634593
 21
15.5089164421
 12
22.9423755467
 22
15.5029606621
 13
22.9423755467
 23
15.5029606621
  0
SOLID
  8
0
 62
7
  6
CONTINUOUS
 10
20.9958106615
 20
15.4732007294
 11
22.9423755467
 21
15.5029606621
 12
20.9839050659
 22
15.4374835471
 13
20.9839050659
 23
15.4374835471
  0
SOLID
  8
0
 62
7
  6
CONTINUOUS
 10
22.9423755467
 20
15.5029606621
 11
22.9185643555
 21
15.4374835471
 12
20.9839050659
 22
15.4374835471
 13
20.9839050659
 23
15.4374835471
  0
SOLID
  8
0
 62
7
  6
CONTINUOUS
 10
20.9719994703
 20
15.395813524
 11
20.9839050659
 21
15.4374835471
 12
22.9185643555
 22
15.4374835471
 13
22.9185643555
 23
15.4374835471
  0
SOLID
  8
0
 62
7
  6
CONTINUOUS
 10
22.9185643555
 20
15.4374835471
 11
22.8947531642
 21
15.3660441076
 12
20.9719994703
 22
15.395813524
 13
20.9719994703
 23
15.395813524
  0
SOLID
  8
0
 62
7
  6
CONTINUOUS
 10
20.9600938746
 20
15.342239955
 11
20.9719994703
 21
15.395813524
 12
22.8947531642
 22
15.3660441076
 13
22.8947531642
 23
15.3660441076
  0
SOLID
  8
0
 62
7
  6
CONTINUOUS
 10
22.8947531642
 20
15.3660441076
 11
22.8709419729
 21
15.3005672229
 12
20.9600938746
 22
15.342239955
 13
20.9600938746
 23
15.342239955
  0
SOLID
  8
0
 62
7
  6
CONTINUOUS
 10
20.9422354812
 20
15.2886569022
 11
20.9600938746
 21
15.342239955
 12
22.8709419729
 22
15.3005672229
 13
22.8709419729
 23
15.3005672229
  0
SOLID
  8
0
 62
7
  6
CONTINUOUS
 10
20.9422354812
 20
15.2886569022
 11
22.8709419729
 21
15.3005672229
 12
20.9243770877
 22
15.229135376
 13
20.9243770877
 23
15.229135376
  0
SOLID
  8
0
 62
7
  6
CONTINUOUS
 10
22.8709419729
 20
15.3005672229
 11
22.8530835795
 21
15.229135376
 12
20.9243770877
 22
15.229135376
 13
20.9243770877
 23
15.229135376
  0
SOLID
  8
0
 62
7
  6
CONTINUOUS
 10
20.1683717654
 20
11.8777114667
 11
20.9243770877
 21
15.229135376
 12
22.8530835795
 22
15.229135376
 13
22.8530835795
 23
15.229135376
  0
SOLID
  8
0
 62
7
  6
CONTINUOUS
 10
22.8530835795
 20
15.229135376
 11
22.0911254593
 21
11.8777114667
 12
20.1683717654
 22
11.8777114667
 13
20.1683717654
 23
11.8777114667
  0
SOLID
  8
0
 62
7
  6
CONTINUOUS
 10
20.1683717654
 20
11.8419916929
 11
20.1683717654
 21
11.8777114667
 12
22.0911254593
 22
11.8777114667
 13
22.0911254593
 23
11.8777114667
  0
SOLID
  8
0
 62
7
  6
CONTINUOUS
 10
20.1683717654
 20
11.8419916929
 11
22.0911254593
 21
11.8777114667
 12
20.1624189675
 22
11.8062725648
 13
20.1624189675
 23
11.8062725648
  0
SOLID
  8
0
 62
7
  6
CONTINUOUS
 10
22.0911254593
 20
11.8777114667
 11
22.0732670659
 21
11.8062725648
 12
20.1624189675
 22
11.8062725648
 13
20.1624189675
 23
11.8062725648
  0
SOLID
  8
0
 62
7
  6
CONTINUOUS
 10
20.1505133719
 20
11.7705581192
 11
20.1624189675
 21
11.8062725648
 12
22.0732670659
 22
11.8062725648
 13
22.0732670659
 23
11.8062725648
  0
SOLID
  8
0
 62
7
  6
CONTINUOUS
 10
22.0732670659
 20
11.8062725648
 11
20.1445605741
 21
11.7348391679
 12
20.1505133719
 22
11.7705581192
 13
20.1505133719
 23
11.7705581192
  0
SOLID
  8
0
 62
7
  6
CONTINUOUS
 10
28.1451208362
 20
16.0744309387
 11
23.638852891
 21
16.0625289932
 12
28.0677344646
 22
16.086333109
 13
28.0677344646
 23
16.086333109
  0
SOLID
  8
0
 62
7
  6
CONTINUOUS
 10
28.0677344646
 20
16.086333109
 11
23.638852891
 21
16.0625289932
 12
27.9903480931
 22
16.0922888891
 13
27.9903480931
 23
16.0922888891
  0
SOLID
  8
0
 62
7
  6
CONTINUOUS
 10
27.9903480931
 20
16.0922888891
 11
23.638852891
 21
16.0625289932
 12
27.9070089237
 22
16.0982446691
 13
27.9070089237
 23
16.0982446691
  0
SOLID
  8
0
 62
7
  6
CONTINUOUS
 10
27.9070089237
 20
16.0982446691
 11
23.638852891
 21
16.0625289932
 12
27.8236697543
 22
16.1041909256
 13
27.8236697543
 23
16.1041909256
  0
SOLID
  8
0
 62
7
  6
CONTINUOUS
 10
27.8236697543
 20
16.1041909256
 11
23.638852891
 21
16.0625289932
 12
27.734377787
 22
16.1041909256
 13
27.734377787
 23
16.1041909256
  0
SOLID
  8
0
 62
7
  6
CONTINUOUS
 10
23.638852891
 20
16.0625289932
 11
23.6269472953
 21
16.1041909256
 12
27.734377787
 22
16.1041909256
 13
27.734377787
 23
16.1041909256
  0
SOLID
  8
0
 62
7
  6
CONTINUOUS
 10
28.1451208362
 20
16.0744309387
 11
28.21655441
 21
16.0625289932
 12
23.638852891
 22
16.0625289932
 13
23.638852891
 23
16.0625289932
  0
SOLID
  8
0
 62
7
  6
CONTINUOUS
 10
23.6448056888
 20
16.0149016837
 11
23.638852891
 21
16.0625289932
 12
28.21655441
 22
16.0625289932
 13
28.21655441
 23
16.0625289932
  0
SOLID
  8
0
 62
7
  6
CONTINUOUS
 10
28.40704394
 20
16.0208557584
 11
23.6448056888
 21
16.0149016837
 12
28.3475159619
 22
16.03871532
 13
28.3475159619
 23
16.03871532
  0
SOLID
  8
0
 62
7
  6
CONTINUOUS
 10
28.3475159619
 20
16.03871532
 11
23.6448056888
 21
16.0149016837
 12
28.2820351859
 22
16.0506173963
 13
28.2820351859
 23
16.0506173963
  0
SOLID
  8
0
 62
7
  6
CONTINUOUS
 10
23.6448056888
 20
16.0149016837
 11
28.21655441
 21
16.0625289564
 12
28.2820351859
 22
16.0506173963
 13
28.2820351859
 23
16.0506173963
  0
SOLID
  8
0
 62
7
  6
CONTINUOUS
 10
28.40704394
 20
16.0208557584
 11
28.4665719182
 21
15.9970438273
 12
23.6448056888
 22
16.0149016837
 13
23.6448056888
 23
16.0149016837
  0
SOLID
  8
0
 62
7
  6
CONTINUOUS
 10
23.6567112844
 20
15.9672838946
 11
23.6448056888
 21
16.0149016837
 12
28.4665719182
 22
15.9970438273
 13
28.4665719182
 23
15.9970438273
  0
SOLID
  8
0
 62
7
  6
CONTINUOUS
 10
11.7968973646
 20
16.2021116949
 11
11.6866674498
 21
16.0075286827
 12
10.2959804478
 22
16.0494888329
 13
10.2959804478
 23
16.0494888329
  0
SOLID
  8
0
 62
7
  6
CONTINUOUS
 10
10.2700228393
 20
15.9359588548
 11
10.2959804478
 21
16.0494888329
 12
11.6866674498
 22
16.0075286827
 13
11.6866674498
 23
16.0075286827
  0
SOLID
  8
0
 62
7
  6
CONTINUOUS
 10
11.7968973646
 20
16.2021116949
 11
10.2959804478
 21
16.0494888329
 12
11.9344854648
 22
16.378414552
 13
11.9344854648
 23
16.378414552
  0
SOLID
  8
0
 62
7
  6
CONTINUOUS
 10
9.1920792946
 20
15.9287350382
 11
11.9344854648
 21
16.378414552
 12
10.2959804478
 22
16.0494888329
 13
10.2959804478
 23
16.0494888329
  0
SOLID
  8
0
 62
7
  6
CONTINUOUS
 10
10.2959804478
 20
16.0494888329
 11
10.0929711604
 21
15.8395760382
 12
9.1920792946
 22
15.9287350382
 13
9.1920792946
 23
15.9287350382
  0
SOLID
  8
0
 62
7
  6
CONTINUOUS
 10
10.2700228393
 20
15.9359588548
 11
11.6866674498
 21
16.0075286827
 12
10.2487254292
 22
15.8214592175
 13
10.2487254292
 23
15.8214592175
  0
SOLID
  8
0
 62
7
  6
CONTINUOUS
 10
11.6866674498
 20
16.0075286827
 11
11.606181865
 21
15.7988776501
 12
10.2487254292
 22
15.8214592175
 13
10.2487254292
 23
15.8214592175
  0
SOLID
  8
0
 62
7
  6
CONTINUOUS
 10
10.2321237818
 20
15.7061850578
 11
10.2487254292
 21
15.8214592175
 12
11.606181865
 22
15.7988776501
 13
11.606181865
 23
15.7988776501
  0
SOLID
  8
0
 62
7
  6
CONTINUOUS
 10
10.2321237818
 20
15.7061850578
 11
11.606181865
 21
15.7988776501
 12
10.2202456203
 22
15.5903288716
 13
10.2202456203
 23
15.5903288716
  0
SOLID
  8
0
 62
7
  6
CONTINUOUS
 10
11.606181865
 20
15.7988776501
 11
11.5571828802
 21
15.5806752618
 12
10.2202456203
 22
15.5903288716
 13
10.2202456203
 23
15.5903288716
  0
SOLID
  8
0
 62
7
  6
CONTINUOUS
 10
10.21311078
 20
15.4740841269
 11
10.2202456203
 21
15.5903288716
 12
11.5571828802
 22
15.5806752618
 13
11.5571828802
 23
15.5806752618
  0
SOLID
  8
0
 62
7
  6
CONTINUOUS
 10
10.21311078
 20
15.4740841269
 11
11.5571828802
 21
15.5806752618
 12
10.2107311753
 22
15.3576417877
 13
10.2107311753
 23
15.3576417877
  0
SOLID
  8
0
 62
7
  6
CONTINUOUS
 10
11.5571828802
 20
15.5806752618
 11
11.5407311753
 21
15.3576417877
 12
10.2107311753
 22
15.3576417877
 13
10.2107311753
 23
15.3576417877
  0
SOLID
  8
0
 62
7
  6
CONTINUOUS
 10
8.8227449078
 20
15.3178657675
 11
9.1920792946
 21
15.9287350382
 12
10.0929711604
 22
15.8395760382
 13
10.0929711604
 23
15.8395760382
  0
SOLID
  8
0
 62
7
  6
CONTINUOUS
 10
10.2107311753
 20
13.1726479227
 11
10.2107311753
 21
15.3576417877
 12
11.5407311753
 22
15.3576417877
 13
11.5407311753
 23
15.3576417877
  0
SOLID
  8
0
 62
7
  6
CONTINUOUS
 10
23.6567112844
 20
15.9672838946
 11
28.4665719182
 21
15.9970438273
 12
28.5201470985
 22
15.9791861737
 13
28.5201470985
 23
15.9791861737
  0
SOLID
  8
0
 62
7
  6
CONTINUOUS
 10
28.5201470985
 20
15.9791861737
 11
28.567769481
 21
15.9553723346
 12
23.6567112844
 22
15.9672838946
 13
23.6567112844
 23
15.9672838946
  0
SOLID
  8
0
 62
7
  6
CONTINUOUS
 10
23.6626640822
 20
15.9196566219
 11
23.6567112844
 21
15.9672838946
 12
28.567769481
 22
15.9553723346
 13
28.567769481
 23
15.9553723346
  0
SOLID
  8
0
 62
7
  6
CONTINUOUS
 10
23.6626640822
 20
15.9196566219
 11
28.567769481
 21
15.9553723346
 12
28.6094390657
 22
15.9256109934
 13
28.6094390657
 23
15.9256109934
  0
SOLID
  8
0
 62
7
  6
CONTINUOUS
 10
28.6094390657
 20
15.9256109934
 11
28.6511086504
 21
15.9017987655
 12
23.6626640822
 22
15.9196566219
 13
23.6626640822
 23
15.9196566219
  0
SOLID
  8
0
 62
7
  6
CONTINUOUS
 10
23.66861688
 20
15.872038839
 11
23.6626640822
 21
15.9196566219
 12
28.6511086504
 22
15.9017987655
 13
28.6511086504
 23
15.9017987655
  0
SOLID
  8
0
 62
7
  6
CONTINUOUS
 10
28.6511086504
 20
15.9017987655
 11
28.6868254373
 21
15.872038839
 12
23.66861688
 22
15.872038839
 13
23.66861688
 23
15.872038839
  0
SOLID
  8
0
 62
7
  6
CONTINUOUS
 10
23.66861688
 20
15.8244115601
 11
23.66861688
 21
15.872038839
 12
28.6868254373
 22
15.872038839
 13
28.6868254373
 23
15.872038839
  0
SOLID
  8
0
 62
7
  6
CONTINUOUS
 10
14.4918781544
 20
15.8697175178
 11
14.4012514972
 21
16.0741679806
 12
15.8254819029
 22
16.0494888329
 13
15.8254819029
 23
16.0494888329
  0
SOLID
  8
0
 62
7
  6
CONTINUOUS
 10
15.8254819029
 20
16.0494888329
 11
15.8747188216
 21
15.8092792249
 12
14.4918781544
 22
15.8697175178
 13
14.4918781544
 23
15.8697175178
  0
SOLID
  8
0
 62
7
  6
CONTINUOUS
 10
14.5515248016
 20
15.6541822301
 11
14.4918781544
 21
15.8697175178
 12
15.8747188216
 22
15.8092792249
 13
15.8747188216
 23
15.8092792249
  0
SOLID
  8
0
 62
7
  6
CONTINUOUS
 10
15.8747188216
 20
15.8092792249
 11
15.903125192
 21
15.5657224596
 12
14.5515248016
 22
15.6541822301
 13
14.5515248016
 23
15.6541822301
  0
SOLID
  8
0
 62
7
  6
CONTINUOUS
 10
14.5789002688
 20
15.4322278057
 11
14.5515248016
 21
15.6541822301
 12
15.903125192
 22
15.5657224596
 13
15.903125192
 23
15.5657224596
  0
SOLID
  8
0
 62
7
  6
CONTINUOUS
 10
15.903125192
 20
15.5657224596
 11
15.910490736
 21
15.3206254
 12
14.5789002688
 22
15.4322278057
 13
14.5789002688
 23
15.4322278057
  0
SOLID
  8
0
 62
7
  6
CONTINUOUS
 10
14.5734119599
 20
15.2086588874
 11
14.5789002688
 21
15.4322278057
 12
15.910490736
 22
15.3206254
 13
15.910490736
 23
15.3206254
  0
SOLID
  8
0
 62
7
  6
CONTINUOUS
 10
15.910490736
 20
15.3206254
 11
15.8967609301
 21
15.0758023777
 12
14.5734119599
 22
15.2086588874
 13
14.5734119599
 23
15.2086588874
  0
SOLID
  8
0
 62
7
  6
CONTINUOUS
 10
14.5351786802
 20
14.9883150672
 11
14.5734119599
 21
15.2086588874
 12
15.8967609301
 22
15.0758023777
 13
15.8967609301
 23
15.0758023777
  0
SOLID
  8
0
 62
7
  6
CONTINUOUS
 10
15.8967609301
 20
15.0758023777
 11
15.8620374091
 21
14.8330656953
 12
14.5351786802
 22
14.9883150672
 13
14.5351786802
 23
14.9883150672
  0
SOLID
  8
0
 62
7
  6
CONTINUOUS
 10
14.4650280648
 20
14.7759661235
 11
14.5351786802
 21
14.9883150672
 12
15.8620374091
 22
14.8330656953
 13
15.8620374091
 23
14.8330656953
  0
SOLID
  8
0
 62
7
  6
CONTINUOUS
 10
15.8620374091
 20
14.8330656953
 11
15.8065772141
 21
14.5942122118
 12
14.4650280648
 22
14.7759661235
 13
14.4650280648
 23
14.7759661235
  0
SOLID
  8
0
 62
7
  6
CONTINUOUS
 10
14.3644786625
 20
14.5762087695
 11
14.4650280648
 21
14.7759661235
 12
15.8065772141
 22
14.5942122118
 13
15.8065772141
 23
14.5942122118
  0
SOLID
  8
0
 62
7
  6
CONTINUOUS
 10
14.3644786625
 20
14.5762087695
 11
15.8065772141
 21
14.5942122118
 12
14.2357070645
 22
14.3933671487
 13
14.2357070645
 23
14.3933671487
  0
SOLID
  8
0
 62
7
  6
CONTINUOUS
 10
15.8065772141
 20
14.5942122118
 11
15.7307908892
 21
14.3610100403
 12
14.2357070645
 22
14.3933671487
 13
14.2357070645
 23
14.3933671487
  0
SOLID
  8
0
 62
7
  6
CONTINUOUS
 10
14.0815007867
 20
14.2313992301
 11
14.2357070645
 21
14.3933671487
 12
15.7307908892
 22
14.3610100403
 13
15.7307908892
 23
14.3610100403
  0
SOLID
  8
0
 62
7
  6
CONTINUOUS
 10
15.7307908892
 20
14.3610100403
 11
15.6352394427
 21
14.1351854603
 12
14.0815007867
 22
14.2313992301
 13
14.0815007867
 23
14.2313992301
  0
SOLID
  8
0
 62
7
  6
CONTINUOUS
 10
13.9051979295
 20
14.09381113
 11
14.0815007867
 21
14.2313992301
 12
15.6352394427
 22
14.1351854603
 13
15.6352394427
 23
14.1351854603
  0
SOLID
  8
0
 62
7
  6
CONTINUOUS
 10
13.9051979295
 20
14.09381113
 11
15.6352394427
 21
14.1351854603
 12
13.7106149174
 22
13.9835812151
 13
13.7106149174
 23
13.9835812151
  0
SOLID
  8
0
 62
7
  6
CONTINUOUS
 10
15.6352394427
 20
14.1351854603
 11
15.5206301945
 21
13.9184101387
 12
13.7106149174
 22
13.9835812151
 13
13.7106149174
 23
13.9835812151
  0
SOLID
  8
0
 62
7
  6
CONTINUOUS
 10
13.5019638848
 20
13.9030956304
 11
13.7106149174
 21
13.9835812151
 12
15.5206301945
 22
13.9184101387
 13
15.5206301945
 23
13.9184101387
  0
SOLID
  8
0
 62
7
  6
CONTINUOUS
 10
13.5019638848
 20
13.9030956304
 11
15.5206301945
 21
13.9184101387
 12
13.2837614965
 22
13.8540966455
 13
13.2837614965
 23
13.8540966455
  0
SOLID
  8
0
 62
7
  6
CONTINUOUS
 10
13.2837614965
 20
13.8540966455
 11
15.5206301945
 21
13.9184101387
 12
13.0607311753
 22
13.8376480131
 13
13.0607311753
 23
13.8376480131
  0
SOLID
  8
0
 62
7
  6
CONTINUOUS
 10
15.5206301945
 20
13.9184101387
 11
15.3878115398
 21
13.712288755
 12
13.0607311753
 22
13.8376480131
 13
13.0607311753
 23
13.8376480131
  0
SOLID
  8
0
 62
7
  6
CONTINUOUS
 10
15.3878115398
 20
13.712288755
 11
10.2107311753
 21
13.1726479227
 12
13.0607311753
 22
13.8376480131
 13
13.0607311753
 23
13.8376480131
  0
SOLID
  8
0
 62
7
  6
CONTINUOUS
 10
13.0607311753
 20
13.8376480131
 11
10.2107311753
 21
13.1726479227
 12
11.5407311753
 22
13.8376480131
 13
11.5407311753
 23
13.8376480131
  0
SOLID
  8
0
 62
7
  6
CONTINUOUS
 10
10.2107311753
 20
13.1726479227
 11
11.5407311753
 21
15.3576415263
 12
11.5407311753
 22
13.8376480131
 13
11.5407311753
 23
13.8376480131
  0
SOLID
  8
0
 62
7
  6
CONTINUOUS
 10
23.66861688
 20
15.8244115601
 11
28.6868254373
 21
15.8720388329
 12
28.7165894264
 22
15.8422694165
 13
28.7165894264
 23
15.8422694165
  0
SOLID
  8
0
 62
7
  6
CONTINUOUS
 10
28.7165894264
 20
15.8422694165
 11
28.7463534154
 21
15.7946494415
 12
23.66861688
 22
15.8244115601
 13
23.66861688
 23
15.8244115601
  0
SOLID
  8
0
 62
7
  6
CONTINUOUS
 10
23.6745696778
 20
15.7827400674
 11
23.66861688
 21
15.8244115601
 12
28.7463534154
 22
15.7946494415
 13
28.7463534154
 23
15.7946494415
  0
SOLID
  8
0
 62
7
  6
CONTINUOUS
 10
23.6745696778
 20
15.7827400674
 11
28.7463534154
 21
15.7946494415
 12
23.6745696778
 22
15.7470242705
 13
23.6745696778
 23
15.7470242705
  0
SOLID
  8
0
 62
7
  6
CONTINUOUS
 10
28.7463534154
 20
15.7946494415
 11
28.7701646067
 21
15.7470242705
 12
23.6745696778
 22
15.7470242705
 13
23.6745696778
 23
15.7470242705
  0
SOLID
  8
0
 62
7
  6
CONTINUOUS
 10
23.6745696778
 20
15.7232202021
 11
23.6745696778
 21
15.7470242705
 12
28.7701646067
 22
15.7470242705
 13
28.7701646067
 23
15.7470242705
  0
SOLID
  8
0
 62
7
  6
CONTINUOUS
 10
23.6745696778
 20
15.7232202021
 11
28.7701646067
 21
15.7470242705
 12
23.6745696778
 22
15.6934507857
 13
23.6745696778
 23
15.6934507857
  0
SOLID
  8
0
 62
7
  6
CONTINUOUS
 10
28.7701646067
 20
15.7470242705
 11
28.793975798
 21
15.6874990808
 12
23.6745696778
 22
15.6934507857
 13
23.6745696778
 23
15.6934507857
  0
SOLID
  8
0
 62
7
  6
CONTINUOUS
 10
23.66861688
 20
15.6696371493
 11
23.6745696778
 21
15.6934507857
 12
28.793975798
 22
15.6874990808
 13
28.793975798
 23
15.6874990808
  0
SOLID
  8
0
 62
7
  6
CONTINUOUS
 10
23.66861688
 20
15.6696371493
 11
28.793975798
 21
15.6874990808
 12
23.66861688
 22
15.6458329966
 13
23.66861688
 23
15.6458329966
  0
SOLID
  8
0
 62
7
  6
CONTINUOUS
 10
28.793975798
 20
15.6874990808
 11
28.8118341914
 21
15.6339239005
 12
23.66861688
 22
15.6458329966
 13
23.66861688
 23
15.6458329966
  0
SOLID
  8
0
 62
7
  6
CONTINUOUS
 10
23.6626640822
 20
15.6220193603
 11
23.66861688
 21
15.6458329966
 12
28.8118341914
 22
15.6339239005
 13
28.8118341914
 23
15.6339239005
  0
SOLID
  8
0
 62
7
  6
CONTINUOUS
 10
23.6626640822
 20
15.6220193603
 11
28.8118341914
 21
15.6339239005
 12
23.6567112844
 22
15.5982057239
 13
23.6567112844
 23
15.5982057239
  0
SOLID
  8
0
 62
7
  6
CONTINUOUS
 10
23.6567112844
 20
15.5982057239
 11
28.8118341914
 21
15.6339239005
 12
23.6567112844
 22
15.5743920875
 13
23.6567112844
 23
15.5743920875
  0
SOLID
  8
0
 62
7
  6
CONTINUOUS
 10
28.8118341914
 20
15.6339239005
 11
28.8296925848
 21
15.5684431245
 12
23.6567112844
 22
15.5743920875
 13
23.6567112844
 23
15.5743920875
  0
SOLID
  8
0
 62
7
  6
CONTINUOUS
 10
23.6567112844
 20
15.5565342312
 11
23.6567112844
 21
15.5743920875
 12
28.8296925848
 22
15.5684431245
 13
28.8296925848
 23
15.5684431245
  0
SOLID
  8
0
 62
7
  6
CONTINUOUS
 10
23.6567112844
 20
15.5565342312
 11
28.8296925848
 21
15.5684431245
 12
23.6567112844
 22
15.5327300785
 13
23.6567112844
 23
15.5327300785
  0
SOLID
  8
0
 62
7
  6
CONTINUOUS
 10
23.6567112844
 20
15.5327300785
 11
28.8296925848
 21
15.5684431245
 12
23.6507584866
 22
15.5089164421
 13
23.6507584866
 23
15.5089164421
  0
SOLID
  8
0
 62
7
  6
CONTINUOUS
 10
28.8296925848
 20
15.5684431245
 11
28.8415981805
 21
15.5029606621
 12
23.6507584866
 22
15.5089164421
 13
23.6507584866
 23
15.5089164421
  0
SOLID
  8
0
 62
7
  6
CONTINUOUS
 10
23.6448056888
 20
15.4732007294
 11
23.6507584866
 21
15.5089164421
 12
28.8415981805
 22
15.5029606621
 13
28.8415981805
 23
15.5029606621
  0
SOLID
  8
0
 62
7
  6
CONTINUOUS
 10
23.6448056888
 20
15.4732007294
 11
28.8415981805
 21
15.5029606621
 12
23.638852891
 22
15.437484735
 13
23.638852891
 23
15.437484735
  0
SOLID
  8
0
 62
7
  6
CONTINUOUS
 10
28.8415981805
 20
15.5029606621
 11
28.8475509783
 21
15.437484735
 12
23.638852891
 22
15.437484735
 13
23.638852891
 23
15.437484735
  0
SOLID
  8
0
 62
7
  6
CONTINUOUS
 10
23.6269472953
 20
15.395813524
 11
23.638852891
 21
15.437484735
 12
28.8475509783
 22
15.437484735
 13
28.8475509783
 23
15.437484735
  0
SOLID
  8
0
 62
7
  6
CONTINUOUS
 10
28.8475509783
 20
15.437484735
 11
28.8475509783
 21
15.3660441076
 12
23.6269472953
 22
15.395813524
 13
23.6269472953
 23
15.395813524
  0
SOLID
  8
0
 62
7
  6
CONTINUOUS
 10
23.6090889019
 20
15.342239955
 11
23.6269472953
 21
15.395813524
 12
28.8475509783
 22
15.3660441076
 13
28.8475509783
 23
15.3660441076
  0
SOLID
  8
0
 62
7
  6
CONTINUOUS
 10
28.8475509783
 20
15.3660441076
 11
28.8475509783
 21
15.330331212
 12
23.6090889019
 22
15.342239955
 13
23.6090889019
 23
15.342239955
  0
SOLID
  8
0
 62
7
  6
CONTINUOUS
 10
23.5971833063
 20
15.2886569022
 11
23.6090889019
 21
15.342239955
 12
28.8475509783
 22
15.330331212
 13
28.8475509783
 23
15.330331212
  0
SOLID
  8
0
 62
7
  6
CONTINUOUS
 10
9.7356472339
 20
15.3780694724
 11
8.8227449078
 21
15.3178657675
 12
9.9058593208
 22
15.6153617845
 13
9.9058593208
 23
15.6153617845
  0
SOLID
  8
0
 62
7
  6
CONTINUOUS
 10
8.8227449078
 20
15.3178657675
 11
10.0929711604
 21
15.8395760382
 12
9.9058593208
 22
15.6153617845
 13
9.9058593208
 23
15.6153617845
  0
SOLID
  8
0
 62
7
  6
CONTINUOUS
 10
9.7356472339
 20
15.3780694724
 11
9.5832466776
 21
15.1289699212
 12
8.8227449078
 22
15.3178657675
 13
8.8227449078
 23
15.3178657675
  0
SOLID
  8
0
 62
7
  6
CONTINUOUS
 10
8.549124519
 20
14.658547151
 11
8.8227449078
 21
15.3178657675
 12
9.5832466776
 22
15.1289699212
 13
9.5832466776
 23
15.1289699212
  0
SOLID
  8
0
 62
7
  6
CONTINUOUS
 10
23.5971833063
 20
15.2886569022
 11
28.8475509783
 21
15.330331212
 12
28.8415981805
 22
15.2946126822
 13
28.8415981805
 23
15.2946126822
  0
SOLID
  8
0
 62
7
  6
CONTINUOUS
 10
28.8415981805
 20
15.2946126822
 11
28.8415981805
 21
15.2529448404
 12
23.5971833063
 22
15.2886569022
 13
23.5971833063
 23
15.2886569022
  0
SOLID
  8
0
 62
7
  6
CONTINUOUS
 10
28.8415981805
 20
15.2529448404
 11
25.5318425958
 21
15.2469964287
 12
23.5971833063
 22
15.2886569022
 13
23.5971833063
 23
15.2886569022
  0
SOLID
  8
0
 62
7
  6
CONTINUOUS
 10
23.5793249128
 20
15.2291370369
 11
23.5971833063
 21
15.2886569022
 12
25.5318425958
 22
15.2469964287
 13
25.5318425958
 23
15.2469964287
  0
SOLID
  8
0
 62
7
  6
CONTINUOUS
 10
25.5318425958
 20
15.2469964287
 11
28.8415981805
 21
15.2529448404
 12
26.615251798
 22
15.2469964287
 13
26.615251798
 23
15.2469964287
  0
SOLID
  8
0
 62
7
  6
CONTINUOUS
 10
26.615251798
 20
15.2469964287
 11
28.8415981805
 21
15.2529448404
 12
26.6628741805
 22
15.2469964287
 13
26.6628741805
 23
15.2469964287
  0
SOLID
  8
0
 62
7
  6
CONTINUOUS
 10
26.6628741805
 20
15.2469964287
 11
28.8415981805
 21
15.2529448404
 12
26.7045437652
 22
15.2410405761
 13
26.7045437652
 23
15.2410405761
  0
SOLID
  8
0
 62
7
  6
CONTINUOUS
 10
26.7045437652
 20
15.2410405761
 11
28.8415981805
 21
15.2529448404
 12
26.7402605521
 22
15.2410405761
 13
26.7402605521
 23
15.2410405761
  0
SOLID
  8
0
 62
7
  6
CONTINUOUS
 10
26.7402605521
 20
15.2410405761
 11
28.8415981805
 21
15.2529448404
 12
26.775977339
 22
15.2350833332
 13
26.775977339
 23
15.2350833332
  0
SOLID
  8
0
 62
7
  6
CONTINUOUS
 10
26.775977339
 20
15.2350833332
 11
28.8415981805
 21
15.2529448404
 12
26.7997885302
 22
15.2231812568
 13
26.7997885302
 23
15.2231812568
  0
SOLID
  8
0
 62
7
  6
CONTINUOUS
 10
26.7997885302
 20
15.2231812568
 11
28.8415981805
 21
15.2529448404
 12
26.8235997215
 22
15.2112784571
 13
26.8235997215
 23
15.2112784571
  0
SOLID
  8
0
 62
7
  6
CONTINUOUS
 10
28.8415981805
 20
15.2529448404
 11
28.8356453826
 21
15.2112784571
 12
26.8235997215
 22
15.2112784571
 13
26.8235997215
 23
15.2112784571
  0
SOLID
  8
0
 62
7
  6
CONTINUOUS
 10
26.8474109127
 20
15.1993676205
 11
26.8235997215
 21
15.2112784571
 12
28.8356453826
 22
15.2112784571
 13
28.8356453826
 23
15.2112784571
  0
SOLID
  8
0
 62
7
  6
CONTINUOUS
 10
26.8474109127
 20
15.1993676205
 11
28.8356453826
 21
15.2112784571
 12
26.8593165084
 22
15.1815097641
 13
26.8593165084
 23
15.1815097641
  0
SOLID
  8
0
 62
7
  6
CONTINUOUS
 10
28.8356453826
 20
15.2112784571
 11
28.8296925848
 21
15.1755539841
 12
26.8593165084
 22
15.1815097641
 13
26.8593165084
 23
15.1815097641
  0
SOLID
  8
0
 62
7
  6
CONTINUOUS
 10
26.8831276996
 20
15.0862665016
 11
26.8593165084
 21
15.1815097641
 12
28.8296925848
 22
15.1755539841
 13
28.8296925848
 23
15.1755539841
  0
SOLID
  8
0
 62
7
  6
CONTINUOUS
 10
25.5318425958
 20
15.2469964287
 11
25.2461083008
 21
14.110009932
 12
23.5793249128
 22
15.2291370369
 13
23.5793249128
 23
15.2291370369
  0
SOLID
  8
0
 62
7
  6
CONTINUOUS
 10
22.8471307817
 20
11.901515655
 11
23.5793249128
 21
15.2291370369
 12
25.2461083008
 22
14.110009932
 13
25.2461083008
 23
14.110009932
  0
SOLID
  8
0
 62
7
  6
CONTINUOUS
 10
42.1818180818
 20
15.2231812568
 11
40.0983388469
 21
15.2172280535
 12
42.2592044534
 22
15.2410391132
 13
42.2592044534
 23
15.2410391132
  0
SOLID
  8
0
 62
7
  6
CONTINUOUS
 10
42.2592044534
 20
15.2410391132
 11
40.0983388469
 21
15.2172280535
 12
42.336590825
 22
15.2469948932
 13
42.336590825
 23
15.2469948932
  0
SOLID
  8
0
 62
7
  6
CONTINUOUS
 10
40.0983388469
 20
15.2172280535
 11
40.1340556338
 21
15.2886569022
 12
42.336590825
 22
15.2469948932
 13
42.336590825
 23
15.2469948932
  0
SOLID
  8
0
 62
7
  6
CONTINUOUS
 10
42.1818180818
 20
15.2231812568
 11
42.1163373059
 21
15.1993676205
 12
40.0983388469
 22
15.2172280535
 13
40.0983388469
 23
15.2172280535
  0
SOLID
  8
0
 62
7
  6
CONTINUOUS
 10
40.06262206
 20
15.1398416819
 11
40.0983388469
 21
15.2172280535
 12
42.1163373059
 22
15.1993676205
 13
42.1163373059
 23
15.1993676205
  0
SOLID
  8
0
 62
7
  6
CONTINUOUS
 10
31.419159634
 20
15.2231812568
 11
29.335680399
 21
15.2112791805
 12
31.4965460055
 22
15.2410391132
 13
31.4965460055
 23
15.2410391132
  0
SOLID
  8
0
 62
7
  6
CONTINUOUS
 10
31.4965460055
 20
15.2410391132
 11
29.335680399
 21
15.2112791805
 12
31.5798851749
 22
15.2469948932
 13
31.5798851749
 23
15.2469948932
  0
SOLID
  8
0
 62
7
  6
CONTINUOUS
 10
29.335680399
 20
15.2112791805
 11
29.3713971859
 21
15.2827106059
 12
31.5798851749
 22
15.2469948932
 13
31.5798851749
 23
15.2469948932
  0
SOLID
  8
0
 62
7
  6
CONTINUOUS
 10
31.419159634
 20
15.2231812568
 11
31.3477260602
 21
15.1993676205
 12
29.335680399
 22
15.2112791805
 13
29.335680399
 23
15.2112791805
  0
SOLID
  8
0
 62
7
  6
CONTINUOUS
 10
29.30591641
 20
15.1338919751
 11
29.335680399
 21
15.2112791805
 12
31.3477260602
 22
15.1993676205
 13
31.3477260602
 23
15.1993676205
  0
SOLID
  8
0
 62
7
  6
CONTINUOUS
 10
37.2886182786
 20
15.2231812568
 11
35.2051390437
 21
15.2112791805
 12
37.3660046502
 22
15.2410391132
 13
37.3660046502
 23
15.2410391132
  0
SOLID
  8
0
 62
7
  6
CONTINUOUS
 10
37.3660046502
 20
15.2410391132
 11
35.2051390437
 21
15.2112791805
 12
37.4493438196
 22
15.2469948932
 13
37.4493438196
 23
15.2469948932
  0
SOLID
  8
0
 62
7
  6
CONTINUOUS
 10
35.2051390437
 20
15.2112791805
 11
35.2468086284
 21
15.2827106059
 12
37.4493438196
 22
15.2469948932
 13
37.4493438196
 23
15.2469948932
  0
SOLID
  8
0
 62
7
  6
CONTINUOUS
 10
37.2886182786
 20
15.2231812568
 11
37.2171847049
 21
15.1993676205
 12
35.2051390437
 22
15.2112791805
 13
35.2051390437
 23
15.2112791805
  0
SOLID
  8
0
 62
7
  6
CONTINUOUS
 10
35.1753750546
 20
15.1338919751
 11
35.2051390437
 21
15.2112791805
 12
37.2171847049
 22
15.1993676205
 13
37.2171847049
 23
15.1993676205
  0
SOLID
  8
0
 62
7
  6
CONTINUOUS
 10
40.06262206
 20
15.1398416819
 11
42.1163373059
 21
15.1993676205
 12
42.0508565299
 22
15.1636519078
 13
42.0508565299
 23
15.1636519078
  0
SOLID
  8
0
 62
7
  6
CONTINUOUS
 10
42.0508565299
 20
15.1636519078
 11
41.9913285518
 21
15.1160341187
 12
40.06262206
 22
15.1398416819
 13
40.06262206
 23
15.1398416819
  0
SOLID
  8
0
 62
7
  6
CONTINUOUS
 10
40.0328580709
 20
15.0565047619
 11
40.06262206
 21
15.1398416819
 12
41.9913285518
 22
15.1160341187
 13
41.9913285518
 23
15.1160341187
  0
SOLID
  8
0
 62
7
  6
CONTINUOUS
 10
41.9913285518
 20
15.1160341187
 11
41.9437061692
 21
15.0565047619
 12
40.0328580709
 22
15.0565047619
 13
40.0328580709
 23
15.0565047619
  0
SOLID
  8
0
 62
7
  6
CONTINUOUS
 10
39.997141284
 20
14.9731617842
 11
40.0328580709
 21
15.0565047619
 12
41.9437061692
 22
15.0565047619
 13
41.9437061692
 23
15.0565047619
  0
SOLID
  8
0
 62
7
  6
CONTINUOUS
 10
29.30591641
 20
15.1338919751
 11
31.3477260602
 21
15.1993676205
 12
31.288198082
 22
15.1636519078
 13
31.288198082
 23
15.1636519078
  0
SOLID
  8
0
 62
7
  6
CONTINUOUS
 10
31.288198082
 20
15.1636519078
 11
31.2346229017
 21
15.1160341187
 12
29.30591641
 22
15.1338919751
 13
29.30591641
 23
15.1338919751
  0
SOLID
  8
0
 62
7
  6
CONTINUOUS
 10
29.2701996231
 20
15.0505489897
 11
29.30591641
 21
15.1338919751
 12
31.2346229017
 22
15.1160341187
 13
31.2346229017
 23
15.1160341187
  0
SOLID
  8
0
 62
7
  6
CONTINUOUS
 10
34.6217648579
 20
15.2053234005
 11
34.6217648579
 21
15.1338919751
 12
32.6811527705
 22
15.1457944798
 13
32.6811527705
 23
15.1457944798
  0
SOLID
  8
0
 62
7
  6
CONTINUOUS
 10
32.7049639618
 20
15.1041248951
 11
32.6811527705
 21
15.1457944798
 12
34.6217648579
 22
15.1338919751
 13
34.6217648579
 23
15.1338919751
  0
SOLID
  8
0
 62
7
  6
CONTINUOUS
 10
32.7049639618
 20
15.1041248951
 11
34.6217648579
 21
15.1338919751
 12
32.7228223552
 22
15.0624553104
 13
32.7228223552
 23
15.0624553104
  0
SOLID
  8
0
 62
7
  6
CONTINUOUS
 10
34.6217648579
 20
15.1338919751
 11
34.6158120601
 21
15.0565047697
 12
32.7228223552
 22
15.0624553104
 13
32.7228223552
 23
15.0624553104
  0
SOLID
  8
0
 62
7
  6
CONTINUOUS
 10
32.7287751531
 20
15.00888013
 11
32.7228223552
 21
15.0624553104
 12
34.6158120601
 22
15.0565047697
 13
34.6158120601
 23
15.0565047697
  0
SOLID
  8
0
 62
7
  6
CONTINUOUS
 10
34.6158120601
 20
15.0565047697
 11
34.6098592623
 21
14.979116141
 12
32.7287751531
 22
15.00888013
 13
32.7287751531
 23
15.00888013
  0
SOLID
  8
0
 62
7
  6
CONTINUOUS
 10
32.7287751531
 20
14.9195882152
 11
32.7287751531
 21
15.00888013
 12
34.6098592623
 22
14.979116141
 13
34.6098592623
 23
14.979116141
  0
SOLID
  8
0
 62
7
  6
CONTINUOUS
 10
34.6098592623
 20
14.979116141
 11
34.6039064645
 21
14.9076825672
 12
32.7287751531
 22
14.9195882152
 13
32.7287751531
 23
14.9195882152
  0
SOLID
  8
0
 62
7
  6
CONTINUOUS
 10
32.0799201913
 20
12.1872508403
 11
32.7287751531
 21
14.9195882152
 12
34.6039064645
 22
14.9076825672
 13
34.6039064645
 23
14.9076825672
  0
SOLID
  8
0
 62
7
  6
CONTINUOUS
 10
35.1753750546
 20
15.1338919751
 11
37.2171847049
 21
15.1993676205
 12
37.1517039289
 22
15.1636519078
 13
37.1517039289
 23
15.1636519078
  0
SOLID
  8
0
 62
7
  6
CONTINUOUS
 10
37.1517039289
 20
15.1636519078
 11
37.0981287486
 21
15.1160341187
 12
35.1753750546
 22
15.1338919751
 13
35.1753750546
 23
15.1338919751
  0
SOLID
  8
0
 62
7
  6
CONTINUOUS
 10
35.1396582678
 20
15.0505489897
 11
35.1753750546
 21
15.1338919751
 12
37.0981287486
 22
15.1160341187
 13
37.0981287486
 23
15.1160341187
  0
SOLID
  8
0
 62
7
  6
CONTINUOUS
 10
43.4438112184
 20
15.1100776929
 11
43.4080944315
 21
15.1576961277
 12
45.378470508
 22
15.1279360863
 13
45.378470508
 23
15.1279360863
  0
SOLID
  8
0
 62
7
  6
CONTINUOUS
 10
43.4438112184
 20
15.1100776929
 11
45.378470508
 21
15.1279360863
 12
43.4676224096
 22
15.0565047697
 13
43.4676224096
 23
15.0565047697
  0
SOLID
  8
0
 62
7
  6
CONTINUOUS
 10
45.378470508
 20
15.1279360863
 11
45.3725177102
 21
15.0505489897
 12
43.4676224096
 22
15.0565047697
 13
43.4676224096
 23
15.0565047697
  0
SOLID
  8
0
 62
7
  6
CONTINUOUS
 10
43.4795280053
 20
14.9910196406
 11
43.4676224096
 21
15.0565047697
 12
45.3725177102
 22
15.0505489897
 13
45.3725177102
 23
15.0505489897
  0
SOLID
  8
0
 62
7
  6
CONTINUOUS
 10
45.3725177102
 20
15.0505489897
 11
45.3665649123
 21
14.9731617842
 12
43.4795280053
 22
14.9910196406
 13
43.4795280053
 23
14.9910196406
  0
SOLID
  8
0
 62
7
  6
CONTINUOUS
 10
43.4795280053
 20
14.9195882152
 11
43.4795280053
 21
14.9910196406
 12
45.3665649123
 22
14.9731617842
 13
45.3665649123
 23
14.9731617842
  0
SOLID
  8
0
 62
7
  6
CONTINUOUS
 10
45.3665649123
 20
14.9731617842
 11
45.3546593167
 21
14.8957769716
 12
43.4795280053
 22
14.9195882152
 13
43.4795280053
 23
14.9195882152
  0
SOLID
  8
0
 62
7
  6
CONTINUOUS
 10
42.8366258414
 20
12.1872508403
 11
43.4795280053
 21
14.9195882152
 12
45.3546593167
 22
14.8957769716
 13
45.3546593167
 23
14.8957769716
  0
SOLID
  8
0
 62
7
  6
CONTINUOUS
 10
28.8118341914
 20
15.0922192994
 11
26.8831276996
 21
15.0862665016
 12
28.8177869892
 22
15.1338919751
 13
28.8177869892
 23
15.1338919751
  0
SOLID
  8
0
 62
7
  6
CONTINUOUS
 10
26.8831276996
 20
15.0862665016
 11
28.8296925848
 21
15.1755539841
 12
28.8177869892
 22
15.1338919751
 13
28.8177869892
 23
15.1338919751
  0
SOLID
  8
0
 62
7
  6
CONTINUOUS
 10
28.8118341914
 20
15.0922192994
 11
28.7999285958
 21
15.0565047697
 12
26.8831276996
 22
15.0862665016
 13
26.8831276996
 23
15.0862665016
  0
SOLID
  8
0
 62
7
  6
CONTINUOUS
 10
26.8831276996
 20
14.9612577475
 11
26.8831276996
 21
15.0862665016
 12
28.7999285958
 22
15.0565047697
 13
28.7999285958
 23
15.0565047697
  0
SOLID
  8
0
 62
7
  6
CONTINUOUS
 10
28.7999285958
 20
15.0565047697
 11
28.6868254373
 21
14.4850339224
 12
26.8831276996
 22
14.9612577475
 13
26.8831276996
 23
14.9612577475
  0
SOLID
  8
0
 62
7
  6
CONTINUOUS
 10
26.7402605521
 20
14.3659779661
 11
26.8831276996
 21
14.9612577475
 12
28.6868254373
 22
14.4850339224
 13
28.6868254373
 23
14.4850339224
  0
SOLID
  8
0
 62
7
  6
CONTINUOUS
 10
29.2701996231
 20
15.0505489897
 11
31.2346229017
 21
15.1160341187
 12
31.1870005192
 22
15.0565047697
 13
31.1870005192
 23
15.0565047697
  0
SOLID
  8
0
 62
7
  6
CONTINUOUS
 10
31.1870005192
 20
15.0565047697
 11
31.1572365301
 21
14.9910196406
 12
29.2701996231
 22
15.0505489897
 13
29.2701996231
 23
15.0505489897
  0
SOLID
  8
0
 62
7
  6
CONTINUOUS
 10
29.240435634
 20
14.9731617842
 11
29.2701996231
 21
15.0505489897
 12
31.1572365301
 22
14.9910196406
 13
31.1572365301
 23
14.9910196406
  0
SOLID
  8
0
 62
7
  6
CONTINUOUS
 10
31.1572365301
 20
14.9910196406
 11
31.1334253389
 21
14.9195882152
 12
29.240435634
 22
14.9731617842
 13
29.240435634
 23
14.9731617842
  0
SOLID
  8
0
 62
7
  6
CONTINUOUS
 10
29.2106716449
 20
14.8838725025
 11
29.240435634
 21
14.9731617842
 12
31.1334253389
 22
14.9195882152
 13
31.1334253389
 23
14.9195882152
  0
SOLID
  8
0
 62
7
  6
CONTINUOUS
 10
29.2106716449
 20
14.8838725025
 11
31.1334253389
 21
14.9195882152
 12
29.1868604537
 22
14.7945832207
 13
29.1868604537
 23
14.7945832207
  0
SOLID
  8
0
 62
7
  6
CONTINUOUS
 10
29.1868604537
 20
14.7945832207
 11
31.1334253389
 21
14.9195882152
 12
29.1630492624
 22
14.699338159
 13
29.1630492624
 23
14.699338159
  0
SOLID
  8
0
 62
7
  6
CONTINUOUS
 10
29.1630492624
 20
14.699338159
 11
31.1334253389
 21
14.9195882152
 12
29.1392380712
 22
14.6040930972
 13
29.1392380712
 23
14.6040930972
  0
SOLID
  8
0
 62
7
  6
CONTINUOUS
 10
29.1392380712
 20
14.6040930972
 11
31.1334253389
 21
14.9195882152
 12
28.6868254373
 22
12.5146578459
 13
28.6868254373
 23
12.5146578459
  0
SOLID
  8
0
 62
7
  6
CONTINUOUS
 10
28.6868254373
 20
12.5146578459
 11
31.1334253389
 21
14.9195882152
 12
28.6689670439
 22
12.496799662
 13
28.6689670439
 23
12.496799662
  0
SOLID
  8
0
 62
7
  6
CONTINUOUS
 10
28.6689670439
 20
12.496799662
 11
31.1334253389
 21
14.9195882152
 12
28.6511086504
 22
12.4134566766
 13
28.6511086504
 23
12.4134566766
  0
SOLID
  8
0
 62
7
  6
CONTINUOUS
 10
28.6511086504
 20
12.4134566766
 11
31.1334253389
 21
14.9195882152
 12
28.633250257
 22
12.3360694711
 13
28.633250257
 23
12.3360694711
  0
SOLID
  8
0
 62
7
  6
CONTINUOUS
 10
28.633250257
 20
12.3360694711
 11
31.1334253389
 21
14.9195882152
 12
28.6213446613
 22
12.2586917494
 13
28.6213446613
 23
12.2586917494
  0
SOLID
  8
0
 62
7
  6
CONTINUOUS
 10
31.1334253389
 20
14.9195882152
 11
30.5143343662
 21
12.1872508403
 12
28.6213446613
 22
12.2586917494
 13
28.6213446613
 23
12.2586917494
  0
SOLID
  8
0
 62
7
  6
CONTINUOUS
 10
28.6094390657
 20
12.181304544
 11
28.6213446613
 21
12.2586917494
 12
30.5143343662
 22
12.1872508403
 13
30.5143343662
 23
12.1872508403
  0
SOLID
  8
0
 62
7
  6
CONTINUOUS
 10
28.6094390657
 20
12.181304544
 11
30.5143343662
 21
12.1872508403
 12
28.6034862679
 22
12.1039173386
 13
28.6034862679
 23
12.1039173386
  0
SOLID
  8
0
 62
7
  6
CONTINUOUS
 10
30.5143343662
 20
12.1872508403
 11
30.4964759728
 21
12.0920057786
 12
28.6034862679
 22
12.1039173386
 13
28.6034862679
 23
12.1039173386
  0
SOLID
  8
0
 62
7
  6
CONTINUOUS
 10
28.5975334701
 20
12.0324859132
 11
28.6034862679
 21
12.1039173386
 12
30.4964759728
 22
12.0920057786
 13
30.4964759728
 23
12.0920057786
  0
SOLID
  8
0
 62
7
  6
CONTINUOUS
 10
35.1396582678
 20
15.0505489897
 11
37.0981287486
 21
15.1160341187
 12
37.0564591639
 22
15.0565047697
 13
37.0564591639
 23
15.0565047697
  0
SOLID
  8
0
 62
7
  6
CONTINUOUS
 10
37.0564591639
 20
15.0565047697
 11
37.020742377
 21
14.9910196406
 12
35.1396582678
 22
15.0505489897
 13
35.1396582678
 23
15.0505489897
  0
SOLID
  8
0
 62
7
  6
CONTINUOUS
 10
35.1098942787
 20
14.9731617842
 11
35.1396582678
 21
15.0505489897
 12
37.020742377
 22
14.9910196406
 13
37.020742377
 23
14.9910196406
  0
SOLID
  8
0
 62
7
  6
CONTINUOUS
 10
37.020742377
 20
14.9910196406
 11
36.9969311857
 21
14.9195882152
 12
35.1098942787
 22
14.9731617842
 13
35.1098942787
 23
14.9731617842
  0
SOLID
  8
0
 62
7
  6
CONTINUOUS
 10
35.0801302896
 20
14.8838725025
 11
35.1098942787
 21
14.9731617842
 12
36.9969311857
 22
14.9195882152
 13
36.9969311857
 23
14.9195882152
  0
SOLID
  8
0
 62
7
  6
CONTINUOUS
 10
35.0801302896
 20
14.8838725025
 11
36.9969311857
 21
14.9195882152
 12
35.0503663005
 22
14.7945832207
 13
35.0503663005
 23
14.7945832207
  0
SOLID
  8
0
 62
7
  6
CONTINUOUS
 10
35.0503663005
 20
14.7945832207
 11
36.9969311857
 21
14.9195882152
 12
35.0265551093
 22
14.699338159
 13
35.0265551093
 23
14.699338159
  0
SOLID
  8
0
 62
7
  6
CONTINUOUS
 10
35.0265551093
 20
14.699338159
 11
36.9969311857
 21
14.9195882152
 12
35.002743918
 22
14.6040930972
 13
35.002743918
 23
14.6040930972
  0
SOLID
  8
0
 62
7
  6
CONTINUOUS
 10
35.002743918
 20
14.6040930972
 11
36.9969311857
 21
14.9195882152
 12
34.5265200929
 22
12.496799662
 13
34.5265200929
 23
12.496799662
  0
SOLID
  8
0
 62
7
  6
CONTINUOUS
 10
34.5265200929
 20
12.496799662
 11
36.9969311857
 21
14.9195882152
 12
34.5086616995
 22
12.4134566766
 13
34.5086616995
 23
12.4134566766
  0
SOLID
  8
0
 62
7
  6
CONTINUOUS
 10
34.5086616995
 20
12.4134566766
 11
36.9969311857
 21
14.9195882152
 12
34.490803306
 22
12.3360694711
 13
34.490803306
 23
12.3360694711
  0
SOLID
  8
0
 62
7
  6
CONTINUOUS
 10
34.490803306
 20
12.3360694711
 11
36.9969311857
 21
14.9195882152
 12
34.4788977104
 22
12.2586917494
 13
34.4788977104
 23
12.2586917494
  0
SOLID
  8
0
 62
7
  6
CONTINUOUS
 10
36.9969311857
 20
14.9195882152
 11
36.3837930109
 21
12.1872508403
 12
34.4788977104
 22
12.2586917494
 13
34.4788977104
 23
12.2586917494
  0
SOLID
  8
0
 62
7
  6
CONTINUOUS
 10
34.4729449126
 20
12.181304544
 11
34.4788977104
 21
12.2586917494
 12
36.3837930109
 22
12.1872508403
 13
36.3837930109
 23
12.1872508403
  0
SOLID
  8
0
 62
7
  6
CONTINUOUS
 10
34.4729449126
 20
12.181304544
 11
36.3837930109
 21
12.1872508403
 12
34.461039317
 22
12.1039173386
 13
34.461039317
 23
12.1039173386
  0
SOLID
  8
0
 62
7
  6
CONTINUOUS
 10
36.3837930109
 20
12.1872508403
 11
36.3599818196
 21
12.0920057786
 12
34.461039317
 22
12.1039173386
 13
34.461039317
 23
12.1039173386
  0
SOLID
  8
0
 62
7
  6
CONTINUOUS
 10
34.461039317
 20
12.0324859132
 11
34.461039317
 21
12.1039173386
 12
36.3599818196
 22
12.0920057786
 13
36.3599818196
 23
12.0920057786
  0
SOLID
  8
0
 62
7
  6
CONTINUOUS
 10
39.997141284
 20
14.9731617842
 11
41.9437061692
 21
15.0565047697
 12
41.9079893824
 22
14.9910196406
 13
41.9079893824
 23
14.9910196406
  0
SOLID
  8
0
 62
7
  6
CONTINUOUS
 10
41.9079893824
 20
14.9910196406
 11
41.8841781911
 21
14.9195882152
 12
39.997141284
 22
14.9731617842
 13
39.997141284
 23
14.9731617842
  0
SOLID
  8
0
 62
7
  6
CONTINUOUS
 10
39.967377295
 20
14.8838725025
 11
39.997141284
 21
14.9731617842
 12
41.8841781911
 22
14.9195882152
 13
41.8841781911
 23
14.9195882152
  0
SOLID
  8
0
 62
7
  6
CONTINUOUS
 10
39.967377295
 20
14.8838725025
 11
41.8841781911
 21
14.9195882152
 12
39.9435661037
 22
14.7945832207
 13
39.9435661037
 23
14.7945832207
  0
SOLID
  8
0
 62
7
  6
CONTINUOUS
 10
39.9435661037
 20
14.7945832207
 11
41.8841781911
 21
14.9195882152
 12
39.9197549125
 22
14.699338159
 13
39.9197549125
 23
14.699338159
  0
SOLID
  8
0
 62
7
  6
CONTINUOUS
 10
39.9197549125
 20
14.699338159
 11
41.8841781911
 21
14.9195882152
 12
39.8959437212
 22
14.6040930972
 13
39.8959437212
 23
14.6040930972
  0
SOLID
  8
0
 62
7
  6
CONTINUOUS
 10
39.8959437212
 20
14.6040930972
 11
41.8841781911
 21
14.9195882152
 12
39.4137670983
 22
12.496799662
 13
39.4137670983
 23
12.496799662
  0
SOLID
  8
0
 62
7
  6
CONTINUOUS
 10
39.4137670983
 20
12.496799662
 11
41.8841781911
 21
14.9195882152
 12
39.3959087048
 22
12.4134566766
 13
39.3959087048
 23
12.4134566766
  0
SOLID
  8
0
 62
7
  6
CONTINUOUS
 10
39.3959087048
 20
12.4134566766
 11
41.8841781911
 21
14.9195882152
 12
39.3840031092
 22
12.3360694711
 13
39.3840031092
 23
12.3360694711
  0
SOLID
  8
0
 62
7
  6
CONTINUOUS
 10
39.3840031092
 20
12.3360694711
 11
41.8841781911
 21
14.9195882152
 12
39.3720975136
 22
12.2586917494
 13
39.3720975136
 23
12.2586917494
  0
SOLID
  8
0
 62
7
  6
CONTINUOUS
 10
41.8841781911
 20
14.9195882152
 11
41.2650872184
 21
12.1872508403
 12
39.3720975136
 22
12.2586917494
 13
39.3720975136
 23
12.2586917494
  0
SOLID
  8
0
 62
7
  6
CONTINUOUS
 10
39.3661447157
 20
12.181304544
 11
39.3720975136
 21
12.2586917494
 12
41.2650872184
 22
12.1872508403
 13
41.2650872184
 23
12.1872508403
  0
SOLID
  8
0
 62
7
  6
CONTINUOUS
 10
41.2650872184
 20
12.1872508403
 11
41.2591344206
 21
12.1158203924
 12
39.3661447157
 22
12.181304544
 13
39.3661447157
 23
12.181304544
  0
SOLID
  8
0
 62
7
  6
CONTINUOUS
 10
39.3542391201
 20
12.1039173386
 11
39.3661447157
 21
12.181304544
 12
41.2591344206
 22
12.1158203924
 13
41.2591344206
 23
12.1158203924
  0
SOLID
  8
0
 62
7
  6
CONTINUOUS
 10
41.2591344206
 20
12.1158203924
 11
41.2591344206
 21
12.0562900659
 12
39.3542391201
 22
12.1039173386
 13
39.3542391201
 23
12.1039173386
  0
SOLID
  8
0
 62
7
  6
CONTINUOUS
 10
39.3542391201
 20
12.0324859132
 11
39.3542391201
 21
12.1039173386
 12
41.2591344206
 22
12.0562900659
 13
41.2591344206
 23
12.0562900659
  0
SOLID
  8
0
 62
7
  6
CONTINUOUS
 10
41.2591344206
 20
12.0562900659
 11
41.2769928141
 21
12.0027164968
 12
39.3542391201
 22
12.0324859132
 13
39.3542391201
 23
12.0324859132
  0
SOLID
  8
0
 62
7
  6
CONTINUOUS
 10
39.3482863223
 20
11.9670007841
 11
39.3542391201
 21
12.0324859132
 12
41.2769928141
 22
12.0027164968
 13
41.2769928141
 23
12.0027164968
  0
SOLID
  8
0
 62
7
  6
CONTINUOUS
 10
41.2769928141
 20
12.0027164968
 11
41.312709601
 21
11.9550987078
 12
39.3482863223
 22
11.9670007841
 13
39.3482863223
 23
11.9670007841
  0
SOLID
  8
0
 62
7
  6
CONTINUOUS
 10
39.3482863223
 20
11.901515655
 11
39.3482863223
 21
11.9670007841
 12
41.312709601
 22
11.9550987078
 13
41.312709601
 23
11.9550987078
  0
SOLID
  8
0
 62
7
  6
CONTINUOUS
 10
8.549124519
 20
14.658547151
 11
9.5832466776
 21
15.1289699212
 12
9.4494740184
 22
14.8693813689
 13
9.4494740184
 23
14.8693813689
  0
SOLID
  8
0
 62
7
  6
CONTINUOUS
 10
9.4494740184
 20
14.8693813689
 11
9.3350458384
 21
14.600707407
 12
8.549124519
 22
14.658547151
 13
8.549124519
 23
14.658547151
  0
SOLID
  8
0
 62
7
  6
CONTINUOUS
 10
8.3773977854
 20
13.9656697563
 11
8.549124519
 21
14.658547151
 12
9.3350458384
 22
14.600707407
 13
9.3350458384
 23
14.600707407
  0
SOLID
  8
0
 62
7
  6
CONTINUOUS
 10
26.7402605521
 20
14.3659779661
 11
28.6868254373
 21
14.4850339224
 12
28.6570614482
 22
14.3838363595
 13
28.6570614482
 23
14.3838363595
  0
SOLID
  8
0
 62
7
  6
CONTINUOUS
 10
26.7402605521
 20
14.3659779661
 11
28.6570614482
 21
14.3838363595
 12
26.7283549565
 22
14.3302611792
 13
26.7283549565
 23
14.3302611792
  0
SOLID
  8
0
 62
7
  6
CONTINUOUS
 10
26.7283549565
 20
14.3302611792
 11
28.6570614482
 21
14.3838363595
 12
26.7164493608
 22
14.3004971902
 13
26.7164493608
 23
14.3004971902
  0
SOLID
  8
0
 62
7
  6
CONTINUOUS
 10
28.6570614482
 20
14.3838363595
 11
28.6213446613
 21
14.2885915945
 12
26.7164493608
 22
14.3004971902
 13
26.7164493608
 23
14.3004971902
  0
SOLID
  8
0
 62
7
  6
CONTINUOUS
 10
26.7045437652
 20
14.2647804033
 11
26.7164493608
 21
14.3004971902
 12
28.6213446613
 22
14.2885915945
 13
28.6213446613
 23
14.2885915945
  0
SOLID
  8
0
 62
7
  6
CONTINUOUS
 10
26.7045437652
 20
14.2647804033
 11
28.6213446613
 21
14.2885915945
 12
26.6866853718
 22
14.2350164142
 13
26.6866853718
 23
14.2350164142
  0
SOLID
  8
0
 62
7
  6
CONTINUOUS
 10
26.6866853718
 20
14.2350164142
 11
28.6213446613
 21
14.2885915945
 12
26.6747797761
 22
14.2112052229
 13
26.6747797761
 23
14.2112052229
  0
SOLID
  8
0
 62
7
  6
CONTINUOUS
 10
28.6213446613
 20
14.2885915945
 11
28.5796750766
 21
14.1992996273
 12
26.6747797761
 22
14.2112052229
 13
26.6747797761
 23
14.2112052229
  0
SOLID
  8
0
 62
7
  6
CONTINUOUS
 10
26.6569213827
 20
14.1873940317
 11
26.6747797761
 21
14.2112052229
 12
28.5796750766
 22
14.1992996273
 13
28.5796750766
 23
14.1992996273
  0
SOLID
  8
0
 62
7
  6
CONTINUOUS
 10
26.6569213827
 20
14.1873940317
 11
28.5796750766
 21
14.1992996273
 12
26.6331101914
 22
14.1695356382
 13
26.6331101914
 23
14.1695356382
  0
SOLID
  8
0
 62
7
  6
CONTINUOUS
 10
26.6331101914
 20
14.1695356382
 11
28.5796750766
 21
14.1992996273
 12
26.615251798
 22
14.1576300426
 13
26.615251798
 23
14.1576300426
  0
SOLID
  8
0
 62
7
  6
CONTINUOUS
 10
26.615251798
 20
14.1576300426
 11
28.5796750766
 21
14.1992996273
 12
26.5973934046
 22
14.145724447
 13
26.5973934046
 23
14.145724447
  0
SOLID
  8
0
 62
7
  6
CONTINUOUS
 10
26.5973934046
 20
14.145724447
 11
28.5796750766
 21
14.1992996273
 12
26.5735822133
 22
14.1397716492
 13
26.5735822133
 23
14.1397716492
  0
SOLID
  8
0
 62
7
  6
CONTINUOUS
 10
26.5735822133
 20
14.1397716492
 11
28.5796750766
 21
14.1992996273
 12
26.5438182242
 22
14.1278660535
 13
26.5438182242
 23
14.1278660535
  0
SOLID
  8
0
 62
7
  6
CONTINUOUS
 10
26.5438182242
 20
14.1278660535
 11
28.5796750766
 21
14.1992996273
 12
26.5140542352
 22
14.1219132557
 13
26.5140542352
 23
14.1219132557
  0
SOLID
  8
0
 62
7
  6
CONTINUOUS
 10
26.5140542352
 20
14.1219132557
 11
28.5796750766
 21
14.1992996273
 12
26.4783374483
 22
14.1159549852
 13
26.4783374483
 23
14.1159549852
  0
SOLID
  8
0
 62
7
  6
CONTINUOUS
 10
28.5796750766
 20
14.1992996273
 11
28.5320526941
 21
14.1159549852
 12
26.4783374483
 22
14.1159549852
 13
26.4783374483
 23
14.1159549852
  0
SOLID
  8
0
 62
7
  6
CONTINUOUS
 10
28.5320526941
 20
14.1159549852
 11
26.4009510767
 21
14.1100108093
 12
26.4783374483
 22
14.1159549852
 13
26.4783374483
 23
14.1159549852
  0
SOLID
  8
0
 62
7
  6
CONTINUOUS
 10
26.4009510767
 20
14.1100108093
 11
26.4426206614
 21
14.1159549852
 12
26.4783374483
 22
14.1159549852
 13
26.4783374483
 23
14.1159549852
  0
SOLID
  8
0
 62
7
  6
CONTINUOUS
 10
28.5320526941
 20
14.1159549852
 11
28.4784775138
 21
14.0385740863
 12
26.4009510767
 22
14.1100108093
 13
26.4009510767
 23
14.1100108093
  0
SOLID
  8
0
 62
7
  6
CONTINUOUS
 10
28.4784775138
 20
14.0385740863
 11
25.0556187707
 21
13.2528043761
 12
26.4009510767
 22
14.1100108093
 13
26.4009510767
 23
14.1100108093
  0
SOLID
  8
0
 62
7
  6
CONTINUOUS
 10
25.0556187707
 20
13.2528043761
 11
22.8471307817
 21
11.901515655
 12
26.4009510767
 22
14.1100108093
 13
26.4009510767
 23
14.1100108093
  0
SOLID
  8
0
 62
7
  6
CONTINUOUS
 10
26.4009510767
 20
14.1100108093
 11
22.8471307817
 21
11.901515655
 12
26.359281492
 22
14.1100108093
 13
26.359281492
 23
14.1100108093
  0
SOLID
  8
0
 62
7
  6
CONTINUOUS
 10
22.8471307817
 20
11.901515655
 11
25.2461083008
 21
14.1100108093
 12
26.359281492
 22
14.1100108093
 13
26.359281492
 23
14.1100108093
  0
SOLID
  8
0
 62
7
  6
CONTINUOUS
 10
22.8471307817
 20
11.901515655
 11
25.0556187707
 21
13.2528043761
 12
22.8471307817
 22
11.8777116067
 13
22.8471307817
 23
11.8777116067
  0
SOLID
  8
0
 62
7
  6
CONTINUOUS
 10
25.0556187707
 20
13.2528043761
 11
24.7401204866
 21
11.8777116067
 12
22.8471307817
 22
11.8777116067
 13
22.8471307817
 23
11.8777116067
  0
SOLID
  8
0
 62
7
  6
CONTINUOUS
 10
22.8233195904
 20
11.8062705933
 11
22.8471307817
 21
11.8777116067
 12
24.7401204866
 22
11.8777116067
 13
24.7401204866
 23
11.8777116067
  0
SOLID
  8
0
 62
7
  6
CONTINUOUS
 10
9.166567847
 20
14.0418883271
 11
8.3773977854
 21
13.9656697563
 12
9.240575097
 22
14.3243895617
 13
9.240575097
 23
14.3243895617
  0
SOLID
  8
0
 62
7
  6
CONTINUOUS
 10
8.3773977854
 20
13.9656697563
 11
9.3350458384
 21
14.600707407
 12
9.240575097
 22
14.3243895617
 13
9.240575097
 23
14.3243895617
  0
SOLID
  8
0
 62
7
  6
CONTINUOUS
 10
9.166567847
 20
14.0418883271
 11
9.1134205242
 21
13.7547400666
 12
8.3773977854
 22
13.9656697563
 13
8.3773977854
 23
13.9656697563
  0
SOLID
  8
0
 62
7
  6
CONTINUOUS
 10
8.3114431177
 20
13.2548820687
 11
8.3773977854
 21
13.9656697563
 12
9.1134205242
 22
13.7547400666
 13
9.1134205242
 23
13.7547400666
  0
SOLID
  8
0
 62
7
  6
CONTINUOUS
 10
8.3114431177
 20
13.2548820687
 11
9.1134205242
 21
13.7547400666
 12
9.0814178239
 22
13.4644716602
 13
9.0814178239
 23
13.4644716602
  0
SOLID
  8
0
 62
7
  6
CONTINUOUS
 10
9.0814178239
 20
13.4644716602
 11
9.0707311753
 21
13.1726479227
 12
8.3114431177
 22
13.2548820687
 13
8.3114431177
 23
13.2548820687
  0
SOLID
  8
0
 62
7
  6
CONTINUOUS
 10
8.3527500878
 20
12.5422370733
 11
8.3114431177
 21
13.2548820687
 12
9.0707311753
 22
13.1726479227
 13
9.0707311753
 23
13.1726479227
  0
SOLID
  8
0
 62
7
  6
CONTINUOUS
 10
28.3534687597
 20
13.2587575727
 11
25.0556187707
 21
13.2528051131
 12
28.3415631641
 22
13.3004271574
 13
28.3415631641
 23
13.3004271574
  0
SOLID
  8
0
 62
7
  6
CONTINUOUS
 10
28.3415631641
 20
13.3004271574
 11
25.0556187707
 21
13.2528051131
 12
28.3237047706
 22
13.3420967421
 13
28.3237047706
 23
13.3420967421
  0
SOLID
  8
0
 62
7
  6
CONTINUOUS
 10
28.3237047706
 20
13.3420967421
 11
25.0556187707
 21
13.2528051131
 12
28.3058463772
 22
13.3718607312
 13
28.3058463772
 23
13.3718607312
  0
SOLID
  8
0
 62
7
  6
CONTINUOUS
 10
28.3058463772
 20
13.3718607312
 11
25.0556187707
 21
13.2528051131
 12
28.2879879838
 22
13.4016247202
 13
28.2879879838
 23
13.4016247202
  0
SOLID
  8
0
 62
7
  6
CONTINUOUS
 10
28.2879879838
 20
13.4016247202
 11
25.0556187707
 21
13.2528051131
 12
28.2641767925
 22
13.4313887093
 13
28.2641767925
 23
13.4313887093
  0
SOLID
  8
0
 62
7
  6
CONTINUOUS
 10
28.2641767925
 20
13.4313887093
 11
25.0556187707
 21
13.2528051131
 12
28.2344128034
 22
13.4492471027
 13
28.2344128034
 23
13.4492471027
  0
SOLID
  8
0
 62
7
  6
CONTINUOUS
 10
28.2344128034
 20
13.4492471027
 11
25.0556187707
 21
13.2528051131
 12
28.2046488144
 22
13.4671054962
 13
28.2046488144
 23
13.4671054962
  0
SOLID
  8
0
 62
7
  6
CONTINUOUS
 10
28.2046488144
 20
13.4671054962
 11
25.0556187707
 21
13.2528051131
 12
28.1689320275
 22
13.4849638896
 13
28.1689320275
 23
13.4849638896
  0
SOLID
  8
0
 62
7
  6
CONTINUOUS
 10
28.1689320275
 20
13.4849638896
 11
25.0556187707
 21
13.2528051131
 12
28.1332152406
 22
13.4968694853
 13
28.1332152406
 23
13.4968694853
  0
SOLID
  8
0
 62
7
  6
CONTINUOUS
 10
28.1332152406
 20
13.4968694853
 11
25.0556187707
 21
13.2528051131
 12
28.0915456559
 22
13.5147278787
 13
28.0915456559
 23
13.5147278787
  0
SOLID
  8
0
 62
7
  6
CONTINUOUS
 10
28.0915456559
 20
13.5147278787
 11
25.0556187707
 21
13.2528051131
 12
28.0498760712
 22
13.5325862721
 13
28.0498760712
 23
13.5325862721
  0
SOLID
  8
0
 62
7
  6
CONTINUOUS
 10
28.0498760712
 20
13.5325862721
 11
25.0556187707
 21
13.2528051131
 12
28.0022536887
 22
13.5504446656
 13
28.0022536887
 23
13.5504446656
  0
SOLID
  8
0
 62
7
  6
CONTINUOUS
 10
28.0022536887
 20
13.5504446656
 11
25.0556187707
 21
13.2528051131
 12
27.9546313062
 22
13.568303059
 13
27.9546313062
 23
13.568303059
  0
SOLID
  8
0
 62
7
  6
CONTINUOUS
 10
27.9546313062
 20
13.568303059
 11
25.0556187707
 21
13.2528051131
 12
27.9070089237
 22
13.5861614525
 13
27.9070089237
 23
13.5861614525
  0
SOLID
  8
0
 62
7
  6
CONTINUOUS
 10
27.9070089237
 20
13.5861614525
 11
25.0556187707
 21
13.2528051131
 12
27.8593865411
 22
13.5980670481
 13
27.8593865411
 23
13.5980670481
  0
SOLID
  8
0
 62
7
  6
CONTINUOUS
 10
27.8593865411
 20
13.5980670481
 11
25.0556187707
 21
13.2528051131
 12
27.799858563
 22
13.6099726437
 13
27.799858563
 23
13.6099726437
  0
SOLID
  8
0
 62
7
  6
CONTINUOUS
 10
27.799858563
 20
13.6099726437
 11
25.0556187707
 21
13.2528051131
 12
27.7403305849
 22
13.6218782393
 13
27.7403305849
 23
13.6218782393
  0
SOLID
  8
0
 62
7
  6
CONTINUOUS
 10
27.7403305849
 20
13.6218782393
 11
25.0556187707
 21
13.2528051131
 12
27.6808026067
 22
13.633783835
 13
27.6808026067
 23
13.633783835
  0
SOLID
  8
0
 62
7
  6
CONTINUOUS
 10
27.6808026067
 20
13.633783835
 11
25.0556187707
 21
13.2528051131
 12
27.609369033
 22
13.6456894306
 13
27.609369033
 23
13.6456894306
  0
SOLID
  8
0
 62
7
  6
CONTINUOUS
 10
25.0556187707
 20
13.2528051131
 11
27.543888257
 21
13.663547824
 12
27.609369033
 22
13.6456894306
 13
27.609369033
 23
13.6456894306
  0
SOLID
  8
0
 62
7
  6
CONTINUOUS
 10
25.0556187707
 20
13.2528051131
 11
28.3534687597
 21
13.2587575727
 12
26.1628391641
 22
13.2528051131
 13
26.1628391641
 23
13.2528051131
  0
SOLID
  8
0
 62
7
  6
CONTINUOUS
 10
26.1628391641
 20
13.2528051131
 11
28.3534687597
 21
13.2587575727
 12
26.2104615466
 22
13.2528051131
 13
26.2104615466
 23
13.2528051131
  0
SOLID
  8
0
 62
7
  6
CONTINUOUS
 10
26.2104615466
 20
13.2528051131
 11
28.3534687597
 21
13.2587575727
 12
26.2521311313
 22
13.2468519771
 13
26.2521311313
 23
13.2468519771
  0
SOLID
  8
0
 62
7
  6
CONTINUOUS
 10
26.2521311313
 20
13.2468519771
 11
28.3534687597
 21
13.2587575727
 12
26.2878479182
 22
13.2408991792
 13
26.2878479182
 23
13.2408991792
  0
SOLID
  8
0
 62
7
  6
CONTINUOUS
 10
26.2878479182
 20
13.2408991792
 11
28.3534687597
 21
13.2587575727
 12
26.3235647051
 22
13.2349463814
 13
26.3235647051
 23
13.2349463814
  0
SOLID
  8
0
 62
7
  6
CONTINUOUS
 10
26.3235647051
 20
13.2349463814
 11
28.3534687597
 21
13.2587575727
 12
26.3533286942
 22
13.2230407858
 13
26.3533286942
 23
13.2230407858
  0
SOLID
  8
0
 62
7
  6
CONTINUOUS
 10
26.3533286942
 20
13.2230407858
 11
28.3534687597
 21
13.2587575727
 12
26.3771398854
 22
13.2111320628
 13
26.3771398854
 23
13.2111320628
  0
SOLID
  8
0
 62
7
  6
CONTINUOUS
 10
28.3534687597
 20
13.2587575727
 11
28.3594215575
 21
13.2111320628
 12
26.3771398854
 22
13.2111320628
 13
26.3771398854
 23
13.2111320628
  0
SOLID
  8
0
 62
7
  6
CONTINUOUS
 10
26.3949982789
 20
13.1992295945
 11
26.3771398854
 21
13.2111320628
 12
28.3594215575
 22
13.2111320628
 13
28.3594215575
 23
13.2111320628
  0
SOLID
  8
0
 62
7
  6
CONTINUOUS
 10
26.3949982789
 20
13.1992295945
 11
28.3594215575
 21
13.2111320628
 12
26.4069038745
 22
13.1813712011
 13
26.4069038745
 23
13.1813712011
  0
SOLID
  8
0
 62
7
  6
CONTINUOUS
 10
26.4069038745
 20
13.1813712011
 11
28.3594215575
 21
13.2111320628
 12
26.4069038745
 22
13.1575595785
 13
26.4069038745
 23
13.1575595785
  0
SOLID
  8
0
 62
7
  6
CONTINUOUS
 10
28.3594215575
 20
13.2111320628
 11
28.3594215575
 21
13.1575595785
 12
26.4069038745
 22
13.1575595785
 13
26.4069038745
 23
13.1575595785
  0
SOLID
  8
0
 62
7
  6
CONTINUOUS
 10
26.4188094701
 20
13.1337488186
 11
26.4069038745
 21
13.1575595785
 12
28.3594215575
 22
13.1575595785
 13
28.3594215575
 23
13.1575595785
  0
SOLID
  8
0
 62
7
  6
CONTINUOUS
 10
26.4188094701
 20
13.1337488186
 11
28.3594215575
 21
13.1575595785
 12
26.4247622679
 22
13.1099376273
 13
26.4247622679
 23
13.1099376273
  0
SOLID
  8
0
 62
7
  6
CONTINUOUS
 10
26.4247622679
 20
13.1099376273
 11
28.3594215575
 21
13.1575595785
 12
26.4247622679
 22
13.0920792339
 13
26.4247622679
 23
13.0920792339
  0
SOLID
  8
0
 62
7
  6
CONTINUOUS
 10
26.4247622679
 20
13.0920792339
 11
28.3594215575
 21
13.1575595785
 12
26.4069038745
 22
12.9432592885
 13
26.4069038745
 23
12.9432592885
  0
SOLID
  8
0
 62
7
  6
CONTINUOUS
 10
28.3594215575
 20
13.1575595785
 11
28.311799175
 21
12.9194480973
 12
26.4069038745
 22
12.9432592885
 13
26.4069038745
 23
12.9432592885
  0
SOLID
  8
0
 62
7
  6
CONTINUOUS
 10
26.2461783335
 20
12.1634427749
 11
26.4069038745
 21
12.9432592885
 12
28.311799175
 22
12.9194480973
 13
28.311799175
 23
12.9194480973
  0
SOLID
  8
0
 62
7
  6
CONTINUOUS
 10
26.2461783335
 20
12.1634427749
 11
28.311799175
 21
12.9194480973
 12
26.2342727379
 22
12.121775195
 13
26.2342727379
 23
12.121775195
  0
SOLID
  8
0
 62
7
  6
CONTINUOUS
 10
26.2342727379
 20
12.121775195
 11
28.311799175
 21
12.9194480973
 12
26.2164143445
 22
12.0801036055
 13
26.2164143445
 23
12.0801036055
  0
SOLID
  8
0
 62
7
  6
CONTINUOUS
 10
28.311799175
 20
12.9194480973
 11
28.121309645
 21
12.0622458459
 12
26.2164143445
 22
12.0801036055
 13
26.2164143445
 23
12.0801036055
  0
SOLID
  8
0
 62
7
  6
CONTINUOUS
 10
26.2045087488
 20
12.0384322095
 11
26.2164143445
 21
12.0801036055
 12
28.121309645
 22
12.0622458459
 13
28.121309645
 23
12.0622458459
  0
SOLID
  8
0
 62
7
  6
CONTINUOUS
 10
26.2045087488
 20
12.0384322095
 11
28.121309645
 21
12.0622458459
 12
26.1866503554
 22
12.0086722768
 13
26.1866503554
 23
12.0086722768
  0
SOLID
  8
0
 62
7
  6
CONTINUOUS
 10
26.1866503554
 20
12.0086722768
 11
28.121309645
 21
12.0622458459
 12
26.1687919619
 22
11.9789028604
 13
26.1687919619
 23
11.9789028604
  0
SOLID
  8
0
 62
7
  6
CONTINUOUS
 10
26.1687919619
 20
11.9789028604
 11
28.121309645
 21
12.0622458459
 12
26.1509335685
 22
11.9550987078
 13
26.1509335685
 23
11.9550987078
  0
SOLID
  8
0
 62
7
  6
CONTINUOUS
 10
28.121309645
 20
12.0622458459
 11
28.0974984537
 21
11.9431871477
 12
26.1509335685
 22
11.9550987078
 13
26.1509335685
 23
11.9550987078
  0
SOLID
  8
0
 62
7
  6
CONTINUOUS
 10
26.1390279729
 20
11.9372408514
 11
26.1509335685
 21
11.9550987078
 12
28.0974984537
 22
11.9431871477
 13
28.0974984537
 23
11.9431871477
  0
SOLID
  8
0
 62
7
  6
CONTINUOUS
 10
15.0716062887
 20
13.3380208968
 11
10.2107311753
 21
13.1726463311
 12
15.2377666687
 22
13.5183471234
 13
15.2377666687
 23
13.5183471234
  0
SOLID
  8
0
 62
7
  6
CONTINUOUS
 10
10.2107311753
 20
13.1726463311
 11
15.3878115398
 21
13.712288755
 12
15.2377666687
 22
13.5183471234
 13
15.2377666687
 23
13.5183471234
  0
SOLID
  8
0
 62
7
  6
CONTINUOUS
 10
15.0716062887
 20
13.3380208968
 11
14.8905604024
 21
13.1726463311
 12
10.2107311753
 22
13.1726463311
 13
10.2107311753
 23
13.1726463311
  0
SOLID
  8
0
 62
7
  6
CONTINUOUS
 10
14.8905604024
 20
13.1726463311
 11
11.5407311753
 21
12.5076490447
 12
10.2107311753
 22
13.1726463311
 13
10.2107311753
 23
13.1726463311
  0
SOLID
  8
0
 62
7
  6
CONTINUOUS
 10
10.2107311753
 20
10.9876437614
 11
10.2107311753
 21
13.1726463311
 12
11.5407311753
 22
12.5076490447
 13
11.5407311753
 23
12.5076490447
  0
SOLID
  8
0
 62
7
  6
CONTINUOUS
 10
11.5407311753
 20
12.5076490447
 11
11.5407311753
 21
10.9876437614
 12
10.2107311753
 22
10.9876437614
 13
10.2107311753
 23
10.9876437614
  0
SOLID
  8
0
 62
7
  6
CONTINUOUS
 10
10.21311078
 20
10.8712057545
 11
10.2107311753
 21
10.9876437614
 12
11.5407311753
 22
10.9876437614
 13
11.5407311753
 23
10.9876437614
  0
SOLID
  8
0
 62
7
  6
CONTINUOUS
 10
11.5407311753
 20
10.9876437614
 11
11.5571828802
 21
10.7646146195
 12
10.21311078
 22
10.8712057545
 13
10.21311078
 23
10.8712057545
  0
SOLID
  8
0
 62
7
  6
CONTINUOUS
 10
10.2202456203
 20
10.7549610098
 11
10.21311078
 21
10.8712057545
 12
11.5571828802
 22
10.7646146195
 13
11.5571828802
 23
10.7646146195
  0
SOLID
  8
0
 62
7
  6
CONTINUOUS
 10
10.2202456203
 20
10.7549610098
 11
11.5571828802
 21
10.7646146195
 12
10.2321237818
 22
10.6391048236
 13
10.2321237818
 23
10.6391048236
  0
SOLID
  8
0
 62
7
  6
CONTINUOUS
 10
11.5571828802
 20
10.7646146195
 11
11.606181865
 21
10.5464122312
 12
10.2321237818
 22
10.6391048236
 13
10.2321237818
 23
10.6391048236
  0
SOLID
  8
0
 62
7
  6
CONTINUOUS
 10
10.2487254292
 20
10.5238306638
 11
10.2321237818
 21
10.6391048236
 12
11.606181865
 22
10.5464122312
 13
11.606181865
 23
10.5464122312
  0
SOLID
  8
0
 62
7
  6
CONTINUOUS
 10
10.2487254292
 20
10.5238306638
 11
11.606181865
 21
10.5464122312
 12
10.2700228393
 22
10.4093310266
 13
10.2700228393
 23
10.4093310266
  0
SOLID
  8
0
 62
7
  6
CONTINUOUS
 10
11.606181865
 20
10.5464122312
 11
11.6866674498
 21
10.3377611987
 12
10.2700228393
 22
10.4093310266
 13
10.2700228393
 23
10.4093310266
  0
SOLID
  8
0
 62
7
  6
CONTINUOUS
 10
10.2959804478
 20
10.2957975287
 11
10.2700228393
 21
10.4093310266
 12
11.6866674498
 22
10.3377611987
 13
11.6866674498
 23
10.3377611987
  0
SOLID
  8
0
 62
7
  6
CONTINUOUS
 10
11.6866674498
 20
10.3377611987
 11
11.7968973646
 21
10.1431781865
 12
10.2959804478
 22
10.2957975287
 13
10.2959804478
 23
10.2957975287
  0
SOLID
  8
0
 62
7
  6
CONTINUOUS
 10
11.7968973646
 20
10.1431781865
 11
9.5364193634
 21
9.9880372329
 12
10.2959804478
 22
10.2957975287
 13
10.2959804478
 23
10.2957975287
  0
SOLID
  8
0
 62
7
  6
CONTINUOUS
 10
10.2959804478
 20
10.2957975287
 11
9.5364193634
 21
9.9880372329
 12
10.0929711604
 22
10.5057198071
 13
10.0929711604
 23
10.5057198071
  0
SOLID
  8
0
 62
7
  6
CONTINUOUS
 10
9.5364193634
 20
9.9880372329
 11
9.0989799845
 21
10.552143557
 12
10.0929711604
 22
10.5057198071
 13
10.0929711604
 23
10.5057198071
  0
SOLID
  8
0
 62
7
  6
CONTINUOUS
 10
11.7968973646
 20
10.1431781865
 11
11.9344854648
 21
9.9668753293
 12
9.5364193634
 22
9.9880372329
 13
9.5364193634
 23
9.9880372329
  0
SOLID
  8
0
 62
7
  6
CONTINUOUS
 10
10.0534545581
 20
9.4958545812
 11
9.5364193634
 21
9.9880372329
 12
11.9344854648
 22
9.9668753293
 13
11.9344854648
 23
9.9668753293
  0
SOLID
  8
0
 62
7
  6
CONTINUOUS
 10
9.1134205242
 20
12.590546295
 11
8.3527500878
 21
12.5422370733
 12
9.0814178239
 22
12.8808147014
 13
9.0814178239
 23
12.8808147014
  0
SOLID
  8
0
 62
7
  6
CONTINUOUS
 10
8.3527500878
 20
12.5422370733
 11
9.0707311753
 21
13.1726479227
 12
9.0814178239
 22
12.8808147014
 13
9.0814178239
 23
12.8808147014
  0
SOLID
  8
0
 62
7
  6
CONTINUOUS
 10
9.1134205242
 20
12.590546295
 11
9.166567847
 21
12.3033980345
 12
8.3527500878
 22
12.5422370733
 13
8.3527500878
 23
12.5422370733
  0
SOLID
  8
0
 62
7
  6
CONTINUOUS
 10
8.5003857868
 20
11.8438297026
 11
8.3527500878
 21
12.5422370733
 12
9.166567847
 22
12.3033980345
 13
9.166567847
 23
12.3033980345
  0
SOLID
  8
0
 62
7
  6
CONTINUOUS
 10
15.3878115398
 20
12.6330011263
 11
11.5407311753
 21
12.507647619
 12
15.2377666687
 22
12.826942758
 13
15.2377666687
 23
12.826942758
  0
SOLID
  8
0
 62
7
  6
CONTINUOUS
 10
15.2377666687
 20
12.826942758
 11
11.5407311753
 21
12.507647619
 12
15.0716062887
 22
13.0072689845
 13
15.0716062887
 23
13.0072689845
  0
SOLID
  8
0
 62
7
  6
CONTINUOUS
 10
11.5407311753
 20
12.507647619
 11
14.8905604024
 21
13.1726479227
 12
15.0716062887
 22
13.0072689845
 13
15.0716062887
 23
13.0072689845
  0
SOLID
  8
0
 62
7
  6
CONTINUOUS
 10
11.5407311753
 20
12.507647619
 11
15.3878115398
 21
12.6330011263
 12
13.0607311753
 22
12.507647619
 13
13.0607311753
 23
12.507647619
  0
SOLID
  8
0
 62
7
  6
CONTINUOUS
 10
13.0607311753
 20
12.507647619
 11
15.3878115398
 21
12.6330011263
 12
13.2837614965
 22
12.4911932358
 13
13.2837614965
 23
12.4911932358
  0
SOLID
  8
0
 62
7
  6
CONTINUOUS
 10
13.2837614965
 20
12.4911932358
 11
15.3878115398
 21
12.6330011263
 12
13.5019638848
 22
12.442194251
 13
13.5019638848
 23
12.442194251
  0
SOLID
  8
0
 62
7
  6
CONTINUOUS
 10
15.3878115398
 20
12.6330011263
 11
15.5206301945
 21
12.4268797427
 12
13.5019638848
 22
12.442194251
 13
13.5019638848
 23
12.442194251
  0
SOLID
  8
0
 62
7
  6
CONTINUOUS
 10
13.7106149174
 20
12.3617086662
 11
13.5019638848
 21
12.442194251
 12
15.5206301945
 22
12.4268797427
 13
15.5206301945
 23
12.4268797427
  0
SOLID
  8
0
 62
7
  6
CONTINUOUS
 10
13.7106149174
 20
12.3617086662
 11
15.5206301945
 21
12.4268797427
 12
13.9051979295
 22
12.2514787514
 13
13.9051979295
 23
12.2514787514
  0
SOLID
  8
0
 62
7
  6
CONTINUOUS
 10
15.5206301945
 20
12.4268797427
 11
15.6352394427
 21
12.2101044211
 12
13.9051979295
 22
12.2514787514
 13
13.9051979295
 23
12.2514787514
  0
SOLID
  8
0
 62
7
  6
CONTINUOUS
 10
14.0815007867
 20
12.1138906512
 11
13.9051979295
 21
12.2514787514
 12
15.6352394427
 22
12.2101044211
 13
15.6352394427
 23
12.2101044211
  0
SOLID
  8
0
 62
7
  6
CONTINUOUS
 10
15.6352394427
 20
12.2101044211
 11
15.7307908892
 21
11.9842798411
 12
14.0815007867
 22
12.1138906512
 13
14.0815007867
 23
12.1138906512
  0
SOLID
  8
0
 62
7
  6
CONTINUOUS
 10
14.2357070645
 20
11.9519227326
 11
14.0815007867
 21
12.1138906512
 12
15.7307908892
 22
11.9842798411
 13
15.7307908892
 23
11.9842798411
  0
SOLID
  8
0
 62
7
  6
CONTINUOUS
 10
14.2357070645
 20
11.9519227326
 11
15.7307908892
 21
11.9842798411
 12
14.3644786625
 22
11.7690811118
 13
14.3644786625
 23
11.7690811118
  0
SOLID
  8
0
 62
7
  6
CONTINUOUS
 10
15.7307908892
 20
11.9842798411
 11
15.8065772141
 21
11.7510776696
 12
14.3644786625
 22
11.7690811118
 13
14.3644786625
 23
11.7690811118
  0
SOLID
  8
0
 62
7
  6
CONTINUOUS
 10
14.4650280648
 20
11.5693237579
 11
14.3644786625
 21
11.7690811118
 12
15.8065772141
 22
11.7510776696
 13
15.8065772141
 23
11.7510776696
  0
SOLID
  8
0
 62
7
  6
CONTINUOUS
 10
15.8065772141
 20
11.7510776696
 11
15.8620374091
 21
11.512224186
 12
14.4650280648
 22
11.5693237579
 13
14.4650280648
 23
11.5693237579
  0
SOLID
  8
0
 62
7
  6
CONTINUOUS
 10
14.5351786802
 20
11.3569748141
 11
14.4650280648
 21
11.5693237579
 12
15.8620374091
 22
11.512224186
 13
15.8620374091
 23
11.512224186
  0
SOLID
  8
0
 62
7
  6
CONTINUOUS
 10
15.8620374091
 20
11.512224186
 11
15.8967609301
 21
11.2694875037
 12
14.5351786802
 22
11.3569748141
 13
14.5351786802
 23
11.3569748141
  0
SOLID
  8
0
 62
7
  6
CONTINUOUS
 10
14.5734119599
 20
11.136630994
 11
14.5351786802
 21
11.3569748141
 12
15.8967609301
 22
11.2694875037
 13
15.8967609301
 23
11.2694875037
  0
SOLID
  8
0
 62
7
  6
CONTINUOUS
 10
15.8967609301
 20
11.2694875037
 11
15.910490736
 21
11.0246644813
 12
14.5734119599
 22
11.136630994
 13
14.5734119599
 23
11.136630994
  0
SOLID
  8
0
 62
7
  6
CONTINUOUS
 10
14.5789002688
 20
10.9130620757
 11
14.5734119599
 21
11.136630994
 12
15.910490736
 22
11.0246644813
 13
15.910490736
 23
11.0246644813
  0
SOLID
  8
0
 62
7
  6
CONTINUOUS
 10
15.910490736
 20
11.0246644813
 11
15.903125192
 21
10.7795674218
 12
14.5789002688
 22
10.9130620757
 13
14.5789002688
 23
10.9130620757
  0
SOLID
  8
0
 62
7
  6
CONTINUOUS
 10
14.5515248016
 20
10.6911076512
 11
14.5789002688
 21
10.9130620757
 12
15.903125192
 22
10.7795674218
 13
15.903125192
 23
10.7795674218
  0
SOLID
  8
0
 62
7
  6
CONTINUOUS
 10
15.903125192
 20
10.7795674218
 11
15.8747188216
 21
10.5360106564
 12
14.5515248016
 22
10.6911076512
 13
14.5515248016
 23
10.6911076512
  0
SOLID
  8
0
 62
7
  6
CONTINUOUS
 10
14.4918781544
 20
10.4755723635
 11
14.5515248016
 21
10.6911076512
 12
15.8747188216
 22
10.5360106564
 13
15.8747188216
 23
10.5360106564
  0
SOLID
  8
0
 62
7
  6
CONTINUOUS
 10
15.8747188216
 20
10.5360106564
 11
15.8254819029
 21
10.2957975287
 12
14.4918781544
 22
10.4755723635
 13
14.4918781544
 23
10.4755723635
  0
SOLID
  8
0
 62
7
  6
CONTINUOUS
 10
14.4012514972
 20
10.2711219007
 11
14.4918781544
 21
10.4755723635
 12
15.8254819029
 22
10.2957975287
 13
15.8254819029
 23
10.2957975287
  0
SOLID
  8
0
 62
7
  6
CONTINUOUS
 10
14.4012514972
 20
10.2711219007
 11
15.8254819029
 21
10.2957975287
 12
14.2816066232
 22
10.0821819978
 13
14.2816066232
 23
10.0821819978
  0
SOLID
  8
0
 62
7
  6
CONTINUOUS
 10
14.2816066232
 20
10.0821819978
 11
15.8254819029
 21
10.2957975287
 12
16.5293793876
 22
9.9274978594
 13
16.5293793876
 23
9.9274978594
  0
SOLID
  8
0
 62
7
  6
CONTINUOUS
 10
16.9765196197
 20
10.483946211
 11
16.5293793876
 21
9.9274978594
 12
15.8254819029
 22
10.2957975287
 13
15.8254819029
 23
10.2957975287
  0
SOLID
  8
0
 62
7
  6
CONTINUOUS
 10
14.1355334828
 20
9.9128426333
 11
14.2816066232
 21
10.0821819978
 12
16.5293793876
 22
9.9274978594
 13
16.5293793876
 23
9.9274978594
  0
SOLID
  8
0
 62
7
  6
CONTINUOUS
 10
14.1355334828
 20
9.9128426333
 11
16.5293793876
 21
9.9274978594
 12
13.9661941182
 22
9.7667694928
 13
13.9661941182
 23
9.7667694928
  0
SOLID
  8
0
 62
7
  6
CONTINUOUS
 10
13.9661941182
 20
9.7667694928
 11
16.5293793876
 21
9.9274978594
 12
13.7772542153
 22
9.6471246189
 13
13.7772542153
 23
9.6471246189
  0
SOLID
  8
0
 62
7
  6
CONTINUOUS
 10
13.7772542153
 20
9.6471246189
 11
16.5293793876
 21
9.9274978594
 12
13.5728037525
 22
9.5564979616
 13
13.5728037525
 23
9.5564979616
  0
SOLID
  8
0
 62
7
  6
CONTINUOUS
 10
13.5728037525
 20
9.5564979616
 11
16.5293793876
 21
9.9274978594
 12
13.3572684648
 22
9.4968513145
 13
13.3572684648
 23
9.4968513145
  0
SOLID
  8
0
 62
7
  6
CONTINUOUS
 10
16.5293793876
 20
9.9274978594
 11
16.0039004901
 21
9.4443404487
 12
13.3572684648
 22
9.4968513145
 13
13.3572684648
 23
9.4968513145
  0
SOLID
  8
0
 62
7
  6
CONTINUOUS
 10
34.0026738853
 20
12.2170179552
 11
32.0799201913
 21
12.1872508403
 12
34.0324378743
 22
12.3063099224
 13
34.0324378743
 23
12.3063099224
  0
SOLID
  8
0
 62
7
  6
CONTINUOUS
 10
34.0324378743
 20
12.3063099224
 11
32.0799201913
 21
12.1872508403
 12
34.0562490656
 22
12.4015546875
 13
34.0562490656
 23
12.4015546875
  0
SOLID
  8
0
 62
7
  6
CONTINUOUS
 10
34.0562490656
 20
12.4015546875
 11
32.0799201913
 21
12.1872508403
 12
34.0800602569
 22
12.496799662
 13
34.0800602569
 23
12.496799662
  0
SOLID
  8
0
 62
7
  6
CONTINUOUS
 10
34.0800602569
 20
12.496799662
 11
32.0799201913
 21
12.1872508403
 12
34.556284082
 22
14.6040930972
 13
34.556284082
 23
14.6040930972
  0
SOLID
  8
0
 62
7
  6
CONTINUOUS
 10
34.556284082
 20
14.6040930972
 11
32.0799201913
 21
12.1872508403
 12
34.5681896776
 22
14.6755234524
 13
34.5681896776
 23
14.6755234524
  0
SOLID
  8
0
 62
7
  6
CONTINUOUS
 10
34.5681896776
 20
14.6755234524
 11
32.0799201913
 21
12.1872508403
 12
34.586048071
 22
14.752909824
 13
34.586048071
 23
14.752909824
  0
SOLID
  8
0
 62
7
  6
CONTINUOUS
 10
34.586048071
 20
14.752909824
 11
32.0799201913
 21
12.1872508403
 12
34.5979536667
 22
14.8302961956
 13
34.5979536667
 23
14.8302961956
  0
SOLID
  8
0
 62
7
  6
CONTINUOUS
 10
32.0799201913
 20
12.1872508403
 11
34.6039064645
 21
14.9076825672
 12
34.5979536667
 22
14.8302961956
 13
34.5979536667
 23
14.8302961956
  0
SOLID
  8
0
 62
7
  6
CONTINUOUS
 10
34.0026738853
 20
12.2170179552
 11
33.9729098962
 21
12.1336787858
 12
32.0799201913
 22
12.1872508403
 13
32.0799201913
 23
12.1872508403
  0
SOLID
  8
0
 62
7
  6
CONTINUOUS
 10
32.0561090001
 20
12.121775195
 11
32.0799201913
 21
12.1872508403
 12
33.9729098962
 22
12.1336787858
 13
33.9729098962
 23
12.1336787858
  0
SOLID
  8
0
 62
7
  6
CONTINUOUS
 10
32.0561090001
 20
12.121775195
 11
33.9729098962
 21
12.1336787858
 12
32.0203922132
 22
12.0562900659
 13
32.0203922132
 23
12.0562900659
  0
SOLID
  8
0
 62
7
  6
CONTINUOUS
 10
33.9729098962
 20
12.1336787858
 11
33.9431459071
 21
12.0503396164
 12
32.0203922132
 22
12.0562900659
 13
32.0203922132
 23
12.0562900659
  0
SOLID
  8
0
 62
7
  6
CONTINUOUS
 10
31.9787226285
 20
12.0027164968
 11
32.0203922132
 21
12.0562900659
 12
33.9431459071
 22
12.0503396164
 13
33.9431459071
 23
12.0503396164
  0
SOLID
  8
0
 62
7
  6
CONTINUOUS
 10
33.9431459071
 20
12.0503396164
 11
33.9074291202
 21
11.9670007841
 12
31.9787226285
 22
12.0027164968
 13
31.9787226285
 23
12.0027164968
  0
SOLID
  8
0
 62
7
  6
CONTINUOUS
 10
31.9251474482
 20
11.9610450041
 11
31.9787226285
 21
12.0027164968
 12
33.9074291202
 22
11.9670007841
 13
33.9074291202
 23
11.9670007841
  0
SOLID
  8
0
 62
7
  6
CONTINUOUS
 10
31.9251474482
 20
11.9610450041
 11
33.9074291202
 21
11.9670007841
 12
31.86561947
 22
11.9253292914
 13
31.86561947
 23
11.9253292914
  0
SOLID
  8
0
 62
7
  6
CONTINUOUS
 10
31.86561947
 20
11.9253292914
 11
33.9074291202
 21
11.9670007841
 12
31.7941858962
 22
11.9015145523
 13
31.7941858962
 23
11.9015145523
  0
SOLID
  8
0
 62
7
  6
CONTINUOUS
 10
33.9074291202
 20
11.9670007841
 11
33.8717123334
 21
11.8955693587
 12
31.7941858962
 22
11.9015145523
 13
31.7941858962
 23
11.9015145523
  0
SOLID
  8
0
 62
7
  6
CONTINUOUS
 10
31.7108467268
 20
11.8836581394
 11
31.7941858962
 21
11.9015145523
 12
33.8717123334
 22
11.8955693587
 13
33.8717123334
 23
11.8955693587
  0
SOLID
  8
0
 62
7
  6
CONTINUOUS
 10
31.7108467268
 20
11.8836581394
 11
33.8717123334
 21
11.8955693587
 12
31.6275075575
 22
11.8777104545
 13
31.6275075575
 23
11.8777104545
  0
SOLID
  8
0
 62
7
  6
CONTINUOUS
 10
33.8717123334
 20
11.8955693587
 11
33.8359955465
 21
11.8241332995
 12
31.6275075575
 22
11.8777104545
 13
31.6275075575
 23
11.8777104545
  0
SOLID
  8
0
 62
7
  6
CONTINUOUS
 10
33.8359955465
 20
11.8241332995
 11
28.5975334701
 21
11.8122263733
 12
31.6275075575
 22
11.8777104545
 13
31.6275075575
 23
11.8777104545
  0
SOLID
  8
0
 62
7
  6
CONTINUOUS
 10
31.6275075575
 20
11.8777104545
 11
28.5975334701
 21
11.8122263733
 12
30.8000686613
 22
11.8777104545
 13
30.8000686613
 23
11.8777104545
  0
SOLID
  8
0
 62
7
  6
CONTINUOUS
 10
30.8000686613
 20
11.8777104545
 11
28.5975334701
 21
11.8122263733
 12
30.7345878853
 22
11.8836581394
 13
30.7345878853
 23
11.8836581394
  0
SOLID
  8
0
 62
7
  6
CONTINUOUS
 10
30.7345878853
 20
11.8836581394
 11
28.5975334701
 21
11.8122263733
 12
30.6750599072
 22
11.8896135787
 13
30.6750599072
 23
11.8896135787
  0
SOLID
  8
0
 62
7
  6
CONTINUOUS
 10
28.5975334701
 20
11.8122263733
 11
28.5915806723
 21
11.9015145523
 12
30.6750599072
 22
11.8896135787
 13
30.6750599072
 23
11.8896135787
  0
SOLID
  8
0
 62
7
  6
CONTINUOUS
 10
33.8359955465
 20
11.8241332995
 11
33.7943259618
 21
11.7526997257
 12
28.5975334701
 22
11.8122263733
 13
28.5975334701
 23
11.8122263733
  0
SOLID
  8
0
 62
7
  6
CONTINUOUS
 10
28.6034862679
 20
11.7288928716
 11
28.5975334701
 21
11.8122263733
 12
33.7943259618
 22
11.7526997257
 13
33.7943259618
 23
11.7526997257
  0
SOLID
  8
0
 62
7
  6
CONTINUOUS
 10
33.7943259618
 20
11.7526997257
 11
33.7586091749
 21
11.6872189498
 12
28.6034862679
 22
11.7288928716
 13
28.6034862679
 23
11.7288928716
  0
SOLID
  8
0
 62
7
  6
CONTINUOUS
 10
28.6213446613
 20
11.6455498861
 11
28.6034862679
 21
11.7288928716
 12
33.7586091749
 22
11.6872189498
 13
33.7586091749
 23
11.6872189498
  0
SOLID
  8
0
 62
7
  6
CONTINUOUS
 10
33.7586091749
 20
11.6872189498
 11
33.7169395902
 21
11.6276920298
 12
28.6213446613
 22
11.6455498861
 13
28.6213446613
 23
11.6455498861
  0
SOLID
  8
0
 62
7
  6
CONTINUOUS
 10
28.6451558526
 20
11.5681626807
 11
28.6213446613
 21
11.6455498861
 12
33.7169395902
 22
11.6276920298
 13
33.7169395902
 23
11.6276920298
  0
SOLID
  8
0
 62
7
  6
CONTINUOUS
 10
44.7593795353
 20
12.2289235509
 11
42.8366258414
 21
12.1872508403
 12
44.7831907266
 22
12.3182155181
 13
44.7831907266
 23
12.3182155181
  0
SOLID
  8
0
 62
7
  6
CONTINUOUS
 10
44.7831907266
 20
12.3182155181
 11
42.8366258414
 21
12.1872508403
 12
44.8129547156
 22
12.4075074853
 13
44.8129547156
 23
12.4075074853
  0
SOLID
  8
0
 62
7
  6
CONTINUOUS
 10
44.8129547156
 20
12.4075074853
 11
42.8366258414
 21
12.1872508403
 12
44.8308131091
 22
12.496799662
 13
44.8308131091
 23
12.496799662
  0
SOLID
  8
0
 62
7
  6
CONTINUOUS
 10
44.8308131091
 20
12.496799662
 11
42.8366258414
 21
12.1872508403
 12
45.3070369342
 22
14.6040930972
 13
45.3070369342
 23
14.6040930972
  0
SOLID
  8
0
 62
7
  6
CONTINUOUS
 10
45.3070369342
 20
14.6040930972
 11
42.8366258414
 21
12.1872508403
 12
45.3189425298
 22
14.6695706546
 13
45.3189425298
 23
14.6695706546
  0
SOLID
  8
0
 62
7
  6
CONTINUOUS
 10
45.3189425298
 20
14.6695706546
 11
42.8366258414
 21
12.1872508403
 12
45.3308481255
 22
14.7410042284
 13
45.3308481255
 23
14.7410042284
  0
SOLID
  8
0
 62
7
  6
CONTINUOUS
 10
45.3308481255
 20
14.7410042284
 11
42.8366258414
 21
12.1872508403
 12
45.3427537211
 22
14.8183906
 13
45.3427537211
 23
14.8183906
  0
SOLID
  8
0
 62
7
  6
CONTINUOUS
 10
42.8366258414
 20
12.1872508403
 11
45.3546593167
 21
14.8957769716
 12
45.3427537211
 22
14.8183906
 13
45.3427537211
 23
14.8183906
  0
SOLID
  8
0
 62
7
  6
CONTINUOUS
 10
44.7593795353
 20
12.2289235509
 11
44.7296155462
 21
12.1455843815
 12
42.8366258414
 22
12.1872508403
 13
42.8366258414
 23
12.1872508403
  0
SOLID
  8
0
 62
7
  6
CONTINUOUS
 10
42.8128146501
 20
12.121775195
 11
42.8366258414
 21
12.1872508403
 12
44.7296155462
 22
12.1455843815
 13
44.7296155462
 23
12.1455843815
  0
SOLID
  8
0
 62
7
  6
CONTINUOUS
 10
44.7296155462
 20
12.1455843815
 11
44.6938987593
 21
12.0622458459
 12
42.8128146501
 22
12.121775195
 13
42.8128146501
 23
12.121775195
  0
SOLID
  8
0
 62
7
  6
CONTINUOUS
 10
42.783050661
 20
12.0562900659
 11
42.8128146501
 21
12.121775195
 12
44.6938987593
 22
12.0622458459
 13
44.6938987593
 23
12.0622458459
  0
SOLID
  8
0
 62
7
  6
CONTINUOUS
 10
42.783050661
 20
12.0562900659
 11
44.6938987593
 21
12.0622458459
 12
42.7354282785
 22
12.0027164968
 13
42.7354282785
 23
12.0027164968
  0
SOLID
  8
0
 62
7
  6
CONTINUOUS
 10
44.6938987593
 20
12.0622458459
 11
44.6581819725
 21
11.9789028604
 12
42.7354282785
 22
12.0027164968
 13
42.7354282785
 23
12.0027164968
  0
SOLID
  8
0
 62
7
  6
CONTINUOUS
 10
42.6818530982
 20
11.9610450041
 11
42.7354282785
 21
12.0027164968
 12
44.6581819725
 22
11.9789028604
 13
44.6581819725
 23
11.9789028604
  0
SOLID
  8
0
 62
7
  6
CONTINUOUS
 10
42.6818530982
 20
11.9610450041
 11
44.6581819725
 21
11.9789028604
 12
42.62232512
 22
11.9253292914
 13
42.62232512
 23
11.9253292914
  0
SOLID
  8
0
 62
7
  6
CONTINUOUS
 10
42.62232512
 20
11.9253292914
 11
44.6581819725
 21
11.9789028604
 12
42.5508915463
 22
11.9015153242
 13
42.5508915463
 23
11.9015153242
  0
SOLID
  8
0
 62
7
  6
CONTINUOUS
 10
44.6581819725
 20
11.9789028604
 11
44.6224651856
 21
11.9015153242
 12
42.5508915463
 22
11.9015153242
 13
42.5508915463
 23
11.9015153242
  0
SOLID
  8
0
 62
7
  6
CONTINUOUS
 10
42.4675523769
 20
11.8836593459
 11
42.5508915463
 21
11.9015153242
 12
44.6224651856
 22
11.9015153242
 13
44.6224651856
 23
11.9015153242
  0
SOLID
  8
0
 62
7
  6
CONTINUOUS
 10
42.4675523769
 20
11.8836593459
 11
44.6224651856
 21
11.9015153242
 12
42.3842132075
 22
11.8777128991
 13
42.3842132075
 23
11.8777128991
  0
SOLID
  8
0
 62
7
  6
CONTINUOUS
 10
44.6224651856
 20
11.9015153242
 11
44.5867483987
 21
11.8300842296
 12
42.3842132075
 22
11.8777128991
 13
42.3842132075
 23
11.8777128991
  0
SOLID
  8
0
 62
7
  6
CONTINUOUS
 10
44.5867483987
 20
11.8300842296
 11
39.3542391201
 21
11.8122263733
 12
42.3842132075
 22
11.8777128991
 13
42.3842132075
 23
11.8777128991
  0
SOLID
  8
0
 62
7
  6
CONTINUOUS
 10
42.3842132075
 20
11.8777128991
 11
39.3542391201
 21
11.8122263733
 12
41.5567743113
 22
11.8777128991
 13
41.5567743113
 23
11.8777128991
  0
SOLID
  8
0
 62
7
  6
CONTINUOUS
 10
41.5567743113
 20
11.8777128991
 11
39.3542391201
 21
11.8122263733
 12
41.4793879397
 22
11.8836593459
 13
41.4793879397
 23
11.8836593459
  0
SOLID
  8
0
 62
7
  6
CONTINUOUS
 10
41.4793879397
 20
11.8836593459
 11
39.3542391201
 21
11.8122263733
 12
41.407954366
 22
11.8955693587
 13
41.407954366
 23
11.8955693587
  0
SOLID
  8
0
 62
7
  6
CONTINUOUS
 10
39.3542391201
 20
11.8122263733
 11
39.3482863223
 21
11.9015153242
 12
41.407954366
 22
11.8955693587
 13
41.407954366
 23
11.8955693587
  0
SOLID
  8
0
 62
7
  6
CONTINUOUS
 10
44.5867483987
 20
11.8300842296
 11
44.545078814
 21
11.7586525235
 12
39.3542391201
 22
11.8122263733
 13
39.3542391201
 23
11.8122263733
  0
SOLID
  8
0
 62
7
  6
CONTINUOUS
 10
39.3601919179
 20
11.7288928716
 11
39.3542391201
 21
11.8122263733
 12
44.545078814
 22
11.7586525235
 13
44.545078814
 23
11.7586525235
  0
SOLID
  8
0
 62
7
  6
CONTINUOUS
 10
44.545078814
 20
11.7586525235
 11
44.5034092293
 21
11.6931717476
 12
39.3601919179
 22
11.7288928716
 13
39.3601919179
 23
11.7288928716
  0
SOLID
  8
0
 62
7
  6
CONTINUOUS
 10
39.3780503114
 20
11.6455498861
 11
39.3601919179
 21
11.7288928716
 12
44.5034092293
 22
11.6931717476
 13
44.5034092293
 23
11.6931717476
  0
SOLID
  8
0
 62
7
  6
CONTINUOUS
 10
44.5034092293
 20
11.6931717476
 11
44.4617396446
 21
11.6336437694
 12
39.3780503114
 22
11.6455498861
 13
39.3780503114
 23
11.6455498861
  0
SOLID
  8
0
 62
7
  6
CONTINUOUS
 10
39.3959087048
 20
11.5681626807
 11
39.3780503114
 21
11.6455498861
 12
44.4617396446
 22
11.6336437694
 13
44.4617396446
 23
11.6336437694
  0
SOLID
  8
0
 62
7
  6
CONTINUOUS
 10
28.5975334701
 20
12.0324859132
 11
30.4964759728
 21
12.0920057786
 12
30.5024287706
 22
12.0384322095
 13
30.5024287706
 23
12.0384322095
  0
SOLID
  8
0
 62
7
  6
CONTINUOUS
 10
30.5024287706
 20
12.0384322095
 11
30.5143343662
 21
11.9967607168
 12
28.5975334701
 22
12.0324859132
 13
28.5975334701
 23
12.0324859132
  0
SOLID
  8
0
 62
7
  6
CONTINUOUS
 10
28.5915806723
 20
11.9670007841
 11
28.5975334701
 21
12.0324859132
 12
30.5143343662
 22
11.9967607168
 13
30.5143343662
 23
11.9967607168
  0
SOLID
  8
0
 62
7
  6
CONTINUOUS
 10
30.5143343662
 20
11.9967607168
 11
30.5440983553
 21
11.9610450041
 12
28.5915806723
 22
11.9670007841
 13
28.5915806723
 23
11.9670007841
  0
SOLID
  8
0
 62
7
  6
CONTINUOUS
 10
28.5915806723
 20
11.901515655
 11
28.5915806723
 21
11.9670007841
 12
30.5440983553
 22
11.9610450041
 13
30.5440983553
 23
11.9610450041
  0
SOLID
  8
0
 62
7
  6
CONTINUOUS
 10
34.461039317
 20
12.0324859132
 11
36.3599818196
 21
12.0920057786
 12
36.3659346175
 22
12.0384322095
 13
36.3659346175
 23
12.0384322095
  0
SOLID
  8
0
 62
7
  6
CONTINUOUS
 10
36.3659346175
 20
12.0384322095
 11
36.3778402131
 21
11.9967607168
 12
34.461039317
 22
12.0324859132
 13
34.461039317
 23
12.0324859132
  0
SOLID
  8
0
 62
7
  6
CONTINUOUS
 10
34.4550865191
 20
11.9670007841
 11
34.461039317
 21
12.0324859132
 12
36.3778402131
 22
11.9967607168
 13
36.3778402131
 23
11.9967607168
  0
SOLID
  8
0
 62
7
  6
CONTINUOUS
 10
36.3778402131
 20
11.9967607168
 11
36.4076042022
 21
11.9610450041
 12
34.4550865191
 22
11.9670007841
 13
34.4550865191
 23
11.9670007841
  0
SOLID
  8
0
 62
7
  6
CONTINUOUS
 10
34.4550865191
 20
11.901515655
 11
34.4550865191
 21
11.9670007841
 12
36.4076042022
 22
11.9610450041
 13
36.4076042022
 23
11.9610450041
  0
SOLID
  8
0
 62
7
  6
CONTINUOUS
 10
38.6637145737
 20
11.9372408514
 11
38.6875257649
 21
11.9431875083
 12
38.7053841584
 22
11.9431875083
 13
38.7053841584
 23
11.9431875083
  0
SOLID
  8
0
 62
7
  6
CONTINUOUS
 10
38.6637145737
 20
11.9372408514
 11
38.7053841584
 21
11.9431875083
 12
38.6339505846
 22
11.9312850714
 13
38.6339505846
 23
11.9312850714
  0
SOLID
  8
0
 62
7
  6
CONTINUOUS
 10
38.6339505846
 20
11.9312850714
 11
38.7053841584
 21
11.9431875083
 12
38.6041865955
 22
11.9253292914
 13
38.6041865955
 23
11.9253292914
  0
SOLID
  8
0
 62
7
  6
CONTINUOUS
 10
38.6041865955
 20
11.9253292914
 11
38.7053841584
 21
11.9431875083
 12
38.5744226065
 22
11.9134252667
 13
38.5744226065
 23
11.9134252667
  0
SOLID
  8
0
 62
7
  6
CONTINUOUS
 10
38.5744226065
 20
11.9134252667
 11
38.7053841584
 21
11.9431875083
 12
35.0503663005
 22
11.0621774392
 13
35.0503663005
 23
11.0621774392
  0
SOLID
  8
0
 62
7
  6
CONTINUOUS
 10
35.0503663005
 20
11.0621774392
 11
38.7053841584
 21
11.9431875083
 12
35.1753750546
 22
11.0443195828
 13
35.1753750546
 23
11.0443195828
  0
SOLID
  8
0
 62
7
  6
CONTINUOUS
 10
38.7053841584
 20
11.9431875083
 11
38.7291953496
 21
11.9491420536
 12
35.1753750546
 22
11.0443195828
 13
35.1753750546
 23
11.0443195828
  0
SOLID
  8
0
 62
7
  6
CONTINUOUS
 10
38.7291953496
 20
11.9491420536
 11
38.7530065409
 21
11.9550987078
 12
35.1753750546
 22
11.0443195828
 13
35.1753750546
 23
11.0443195828
  0
SOLID
  8
0
 62
7
  6
CONTINUOUS
 10
35.1753750546
 20
11.0443195828
 11
38.7530065409
 21
11.9550987078
 12
35.3063366066
 22
11.0324080228
 13
35.3063366066
 23
11.0324080228
  0
SOLID
  8
0
 62
7
  6
CONTINUOUS
 10
35.3063366066
 20
11.0324080228
 11
38.7530065409
 21
11.9550987078
 12
35.4551565519
 22
11.0264615945
 13
35.4551565519
 23
11.0264615945
  0
SOLID
  8
0
 62
7
  6
CONTINUOUS
 10
35.4551565519
 20
11.0264615945
 11
38.7530065409
 21
11.9550987078
 12
38.5446586174
 22
11.0264615945
 13
38.5446586174
 23
11.0264615945
  0
SOLID
  8
0
 62
7
  6
CONTINUOUS
 10
38.7530065409
 20
11.9550987078
 11
38.78277053
 21
11.9670007841
 12
38.5446586174
 22
11.0264615945
 13
38.5446586174
 23
11.0264615945
  0
SOLID
  8
0
 62
7
  6
CONTINUOUS
 10
38.9494488688
 20
12.0622458459
 11
38.5446586174
 21
11.0264615945
 12
38.78277053
 22
11.9670007841
 13
38.78277053
 23
11.9670007841
  0
SOLID
  8
0
 62
7
  6
CONTINUOUS
 10
27.543888257
 20
13.663547824
 11
25.0556187707
 21
13.2528043761
 12
27.4724546832
 22
13.6695006219
 13
27.4724546832
 23
13.6695006219
  0
SOLID
  8
0
 62
7
  6
CONTINUOUS
 10
27.4724546832
 20
13.6695006219
 11
25.0556187707
 21
13.2528043761
 12
27.4010211095
 22
13.6814062175
 13
27.4010211095
 23
13.6814062175
  0
SOLID
  8
0
 62
7
  6
CONTINUOUS
 10
27.4010211095
 20
13.6814062175
 11
25.0556187707
 21
13.2528043761
 12
28.2046488144
 22
13.8302261628
 13
28.2046488144
 23
13.8302261628
  0
SOLID
  8
0
 62
7
  6
CONTINUOUS
 10
28.2046488144
 20
13.8302261628
 11
25.0556187707
 21
13.2528043761
 12
28.2820351859
 22
13.8718957475
 13
28.2820351859
 23
13.8718957475
  0
SOLID
  8
0
 62
7
  6
CONTINUOUS
 10
28.2820351859
 20
13.8718957475
 11
25.0556187707
 21
13.2528043761
 12
28.3534687597
 22
13.9135653322
 13
28.3534687597
 23
13.9135653322
  0
SOLID
  8
0
 62
7
  6
CONTINUOUS
 10
28.3534687597
 20
13.9135653322
 11
25.0556187707
 21
13.2528043761
 12
28.4189495357
 22
13.9730933104
 13
28.4189495357
 23
13.9730933104
  0
SOLID
  8
0
 62
7
  6
CONTINUOUS
 10
25.0556187707
 20
13.2528043761
 11
28.4784775138
 21
14.0385740863
 12
28.4189495357
 22
13.9730933104
 13
28.4189495357
 23
13.9730933104
  0
SOLID
  8
0
 62
7
  6
CONTINUOUS
 10
27.6748498089
 20
13.6933118131
 11
27.5379354592
 21
13.6873590153
 12
27.799858563
 22
13.7111702066
 13
27.799858563
 23
13.7111702066
  0
SOLID
  8
0
 62
7
  6
CONTINUOUS
 10
27.5379354592
 20
13.6873590153
 11
27.4010211095
 21
13.6814062175
 12
27.799858563
 22
13.7111702066
 13
27.799858563
 23
13.7111702066
  0
SOLID
  8
0
 62
7
  6
CONTINUOUS
 10
27.799858563
 20
13.7111702066
 11
27.4010211095
 21
13.6814062175
 12
27.9129617215
 22
13.7349813978
 13
27.9129617215
 23
13.7349813978
  0
SOLID
  8
0
 62
7
  6
CONTINUOUS
 10
27.9129617215
 20
13.7349813978
 11
27.4010211095
 21
13.6814062175
 12
28.0201120821
 22
13.7587925891
 13
28.0201120821
 23
13.7587925891
  0
SOLID
  8
0
 62
7
  6
CONTINUOUS
 10
28.0201120821
 20
13.7587925891
 11
27.4010211095
 21
13.6814062175
 12
28.1153568471
 22
13.794509376
 13
28.1153568471
 23
13.794509376
  0
SOLID
  8
0
 62
7
  6
CONTINUOUS
 10
27.4010211095
 20
13.6814062175
 11
28.2046488144
 21
13.8302261628
 12
28.1153568471
 22
13.794509376
 13
28.1153568471
 23
13.794509376
  0
SOLID
  8
0
 62
7
  6
CONTINUOUS
 10
30.6214847269
 20
11.907471435
 11
28.5915806723
 21
11.901515655
 12
30.5798151422
 22
11.9312850714
 13
30.5798151422
 23
11.9312850714
  0
SOLID
  8
0
 62
7
  6
CONTINUOUS
 10
28.5915806723
 20
11.901515655
 11
30.5440983553
 21
11.9610450041
 12
30.5798151422
 22
11.9312850714
 13
30.5798151422
 23
11.9312850714
  0
SOLID
  8
0
 62
7
  6
CONTINUOUS
 10
30.6214847269
 20
11.907471435
 11
30.6750599072
 21
11.8896135787
 12
28.5915806723
 22
11.901515655
 13
28.5915806723
 23
11.901515655
  0
SOLID
  8
0
 62
7
  6
CONTINUOUS
 10
36.4849905737
 20
11.907471435
 11
34.4550865191
 21
11.901515655
 12
36.443320989
 22
11.9312850714
 13
36.443320989
 23
11.9312850714
  0
SOLID
  8
0
 62
7
  6
CONTINUOUS
 10
34.4550865191
 20
11.901515655
 11
36.4076042022
 21
11.9610450041
 12
36.443320989
 22
11.9312850714
 13
36.443320989
 23
11.9312850714
  0
SOLID
  8
0
 62
7
  6
CONTINUOUS
 10
36.4849905737
 20
11.907471435
 11
36.5385657541
 21
11.8896135787
 12
34.4550865191
 22
11.901515655
 13
34.4550865191
 23
11.901515655
  0
SOLID
  8
0
 62
7
  6
CONTINUOUS
 10
34.461039317
 20
11.8122263733
 11
34.4550865191
 21
11.901515655
 12
36.5385657541
 22
11.8896135787
 13
36.5385657541
 23
11.8896135787
  0
SOLID
  8
0
 62
7
  6
CONTINUOUS
 10
41.3543791857
 20
11.9193735114
 11
41.407954366
 21
11.8955693587
 12
41.312709601
 22
11.9550987078
 13
39.3482863223
 23
11.901515655
  0
SOLID
  8
0
 62
7
  6
CONTINUOUS
 10
38.5029890327
 20
11.9015154985
 11
38.3720274808
 21
11.8955693587
 12
38.4672722458
 22
11.9015154985
 13
38.4672722458
 23
11.9015154985
  0
SOLID
  8
0
 62
7
  6
CONTINUOUS
 10
38.3720274808
 20
11.8955693587
 11
38.4256026611
 21
11.9015154985
 12
38.4672722458
 22
11.9015154985
 13
38.4672722458
 23
11.9015154985
  0
SOLID
  8
0
 62
7
  6
CONTINUOUS
 10
38.3720274808
 20
11.8955693587
 11
38.5029890327
 21
11.9015154985
 12
38.1160571748
 22
11.8836577987
 13
38.1160571748
 23
11.8836577987
  0
SOLID
  8
0
 62
7
  6
CONTINUOUS
 10
38.1160571748
 20
11.8836577987
 11
38.5029890327
 21
11.9015154985
 12
34.4848505082
 22
11.6455498861
 13
34.4848505082
 23
11.6455498861
  0
SOLID
  8
0
 62
7
  6
CONTINUOUS
 10
34.4848505082
 20
11.6455498861
 11
38.5029890327
 21
11.9015154985
 12
34.5086616995
 22
11.5681626807
 13
34.5086616995
 23
11.5681626807
  0
SOLID
  8
0
 62
7
  6
CONTINUOUS
 10
34.5086616995
 20
11.5681626807
 11
38.5029890327
 21
11.9015154985
 12
34.5324728907
 22
11.4907754753
 13
34.5324728907
 23
11.4907754753
  0
SOLID
  8
0
 62
7
  6
CONTINUOUS
 10
34.5324728907
 20
11.4907754753
 11
38.5029890327
 21
11.9015154985
 12
34.5681896776
 22
11.4133882699
 13
34.5681896776
 23
11.4133882699
  0
SOLID
  8
0
 62
7
  6
CONTINUOUS
 10
34.5681896776
 20
11.4133882699
 11
38.5029890327
 21
11.9015154985
 12
34.6039064645
 22
11.3479126245
 13
34.6039064645
 23
11.3479126245
  0
SOLID
  8
0
 62
7
  6
CONTINUOUS
 10
34.6039064645
 20
11.3479126245
 11
38.5029890327
 21
11.9015154985
 12
34.6455760492
 22
11.2824274954
 13
34.6455760492
 23
11.2824274954
  0
SOLID
  8
0
 62
7
  6
CONTINUOUS
 10
34.6455760492
 20
11.2824274954
 11
38.5029890327
 21
11.9015154985
 12
34.6991512295
 22
11.2228981463
 13
34.6991512295
 23
11.2228981463
  0
SOLID
  8
0
 62
7
  6
CONTINUOUS
 10
38.5029890327
 20
11.9015154985
 11
38.5744226065
 21
11.9134252667
 12
34.6991512295
 22
11.2228981463
 13
34.6991512295
 23
11.2228981463
  0
SOLID
  8
0
 62
7
  6
CONTINUOUS
 10
34.6991512295
 20
11.2228981463
 11
38.5744226065
 21
11.9134252667
 12
34.7646320055
 22
11.1693245773
 13
34.7646320055
 23
11.1693245773
  0
SOLID
  8
0
 62
7
  6
CONTINUOUS
 10
34.7646320055
 20
11.1693245773
 11
38.5744226065
 21
11.9134252667
 12
34.8479711749
 22
11.1276530846
 13
34.8479711749
 23
11.1276530846
  0
SOLID
  8
0
 62
7
  6
CONTINUOUS
 10
34.8479711749
 20
11.1276530846
 11
38.5744226065
 21
11.9134252667
 12
34.9432159399
 22
11.0919373719
 13
34.9432159399
 23
11.0919373719
  0
SOLID
  8
0
 62
7
  6
CONTINUOUS
 10
38.5744226065
 20
11.9134252667
 11
35.0503663005
 21
11.0621774392
 12
34.9432159399
 22
11.0919373719
 13
34.9432159399
 23
11.0919373719
  0
SOLID
  8
0
 62
7
  6
CONTINUOUS
 10
38.2113019398
 20
11.8896135787
 11
38.300593907
 21
11.8955693587
 12
38.1160571748
 22
11.8836577987
 13
38.3720274808
 23
11.8955693587
  0
SOLID
  8
0
 62
7
  6
CONTINUOUS
 10
25.8890104647
 20
11.8777113002
 11
25.9366328472
 21
11.8836581745
 12
25.9723496341
 22
11.8836581745
 13
25.9723496341
 23
11.8836581745
  0
SOLID
  8
0
 62
7
  6
CONTINUOUS
 10
25.9723496341
 20
11.8836581745
 11
28.0974984537
 21
11.9431871477
 12
25.8890104647
 22
11.8777113002
 13
25.8890104647
 23
11.8777113002
  0
SOLID
  8
0
 62
7
  6
CONTINUOUS
 10
28.0974984537
 20
11.9431871477
 11
28.0617816668
 21
11.8300842296
 12
25.8890104647
 22
11.8777113002
 13
25.8890104647
 23
11.8777113002
  0
SOLID
  8
0
 62
7
  6
CONTINUOUS
 10
28.0617816668
 20
11.8300842296
 11
22.8233195904
 21
11.8062705933
 12
25.8890104647
 22
11.8777113002
 13
25.8890104647
 23
11.8777113002
  0
SOLID
  8
0
 62
7
  6
CONTINUOUS
 10
25.8890104647
 20
11.8777113002
 11
22.8233195904
 21
11.8062705933
 12
25.8413880822
 22
11.8777113002
 13
25.8413880822
 23
11.8777113002
  0
SOLID
  8
0
 62
7
  6
CONTINUOUS
 10
22.8233195904
 20
11.8062705933
 11
24.7401204866
 21
11.8777113002
 12
25.8413880822
 22
11.8777113002
 13
25.8413880822
 23
11.8777113002
  0
SOLID
  8
0
 62
7
  6
CONTINUOUS
 10
22.8233195904
 20
11.8062705933
 11
28.0617816668
 21
11.8300842296
 12
22.805461197
 22
11.7407941301
 13
22.805461197
 23
11.7407941301
  0
SOLID
  8
0
 62
7
  6
CONTINUOUS
 10
28.0617816668
 20
11.8300842296
 11
28.0201120821
 21
11.7229357367
 12
22.805461197
 22
11.7407941301
 13
22.805461197
 23
11.7407941301
  0
SOLID
  8
0
 62
7
  6
CONTINUOUS
 10
22.7816500057
 20
11.6753133541
 11
22.805461197
 21
11.7407941301
 12
28.0201120821
 22
11.7229357367
 13
28.0201120821
 23
11.7229357367
  0
SOLID
  8
0
 62
7
  6
CONTINUOUS
 10
28.0201120821
 20
11.7229357367
 11
27.9665369018
 21
11.6217381738
 12
22.7816500057
 22
11.6753133541
 13
22.7816500057
 23
11.6753133541
  0
SOLID
  8
0
 62
7
  6
CONTINUOUS
 10
22.7578388145
 20
11.615785376
 11
22.7816500057
 21
11.6753133541
 12
27.9665369018
 22
11.6217381738
 13
27.9665369018
 23
11.6217381738
  0
SOLID
  8
0
 62
7
  6
CONTINUOUS
 10
22.7578388145
 20
11.615785376
 11
27.9665369018
 21
11.6217381738
 12
22.7340276232
 22
11.5622101957
 13
22.7340276232
 23
11.5622101957
  0
SOLID
  8
0
 62
7
  6
CONTINUOUS
 10
27.9665369018
 20
11.6217381738
 11
27.9070089237
 21
11.5324462066
 12
22.7340276232
 22
11.5622101957
 13
22.7340276232
 23
11.5622101957
  0
SOLID
  8
0
 62
7
  6
CONTINUOUS
 10
22.7161692298
 20
11.5086350153
 11
22.7340276232
 21
11.5622101957
 12
27.9070089237
 22
11.5324462066
 13
27.9070089237
 23
11.5324462066
  0
SOLID
  8
0
 62
7
  6
CONTINUOUS
 10
22.7161692298
 20
11.5086350153
 11
27.9070089237
 21
11.5324462066
 12
22.6923580385
 22
11.4669618389
 13
22.6923580385
 23
11.4669618389
  0
SOLID
  8
0
 62
7
  6
CONTINUOUS
 10
27.9070089237
 20
11.5324462066
 11
27.8415281477
 21
11.4491039826
 12
22.6923580385
 22
11.4669618389
 13
22.6923580385
 23
11.4669618389
  0
SOLID
  8
0
 62
7
  6
CONTINUOUS
 10
22.6744996451
 20
11.4252998299
 11
22.6923580385
 21
11.4669618389
 12
27.8415281477
 22
11.4491039826
 13
27.8415281477
 23
11.4491039826
  0
SOLID
  8
0
 62
7
  6
CONTINUOUS
 10
22.6744996451
 20
11.4252998299
 11
27.8415281477
 21
11.4491039826
 12
22.6685468473
 22
11.3895790591
 13
22.6685468473
 23
11.3895790591
  0
SOLID
  8
0
 62
7
  6
CONTINUOUS
 10
27.8415281477
 20
11.4491039826
 11
27.7641417761
 21
11.3717206656
 12
22.6685468473
 22
11.3895790591
 13
22.6685468473
 23
11.3895790591
  0
SOLID
  8
0
 62
7
  6
CONTINUOUS
 10
22.6566412516
 20
11.3538622722
 11
22.6685468473
 21
11.3895790591
 12
27.7641417761
 22
11.3717206656
 13
27.7641417761
 23
11.3717206656
  0
SOLID
  8
0
 62
7
  6
CONTINUOUS
 10
22.6566412516
 20
11.3538622722
 11
27.7641417761
 21
11.3717206656
 12
22.644735656
 22
11.3121926875
 13
22.644735656
 23
11.3121926875
  0
SOLID
  8
0
 62
7
  6
CONTINUOUS
 10
27.7641417761
 20
11.3717206656
 11
27.6867554045
 21
11.3002853517
 12
22.644735656
 22
11.3121926875
 13
22.644735656
 23
11.3121926875
  0
SOLID
  8
0
 62
7
  6
CONTINUOUS
 10
22.6268772626
 20
11.2764759006
 11
22.644735656
 21
11.3121926875
 12
27.6867554045
 22
11.3002853517
 13
27.6867554045
 23
11.3002853517
  0
SOLID
  8
0
 62
7
  6
CONTINUOUS
 10
27.6867554045
 20
11.3002853517
 11
27.639133022
 21
11.264569639
 12
22.6268772626
 22
11.2764759006
 13
22.6268772626
 23
11.2764759006
  0
SOLID
  8
0
 62
7
  6
CONTINUOUS
 10
22.6149716669
 20
11.2407591137
 11
22.6268772626
 21
11.2764759006
 12
27.639133022
 22
11.264569639
 13
27.639133022
 23
11.264569639
  0
SOLID
  8
0
 62
7
  6
CONTINUOUS
 10
27.639133022
 20
11.264569639
 11
27.5915106395
 21
11.2348097064
 12
22.6149716669
 22
11.2407591137
 13
22.6149716669
 23
11.2407591137
  0
SOLID
  8
0
 62
7
  6
CONTINUOUS
 10
22.6030660713
 20
11.21099607
 11
22.6149716669
 21
11.2407591137
 12
27.5915106395
 22
11.2348097064
 13
27.5915106395
 23
11.2348097064
  0
SOLID
  8
0
 62
7
  6
CONTINUOUS
 10
27.5915106395
 20
11.2348097064
 11
27.5379354592
 21
11.20504029
 12
22.6030660713
 22
11.21099607
 13
22.6030660713
 23
11.21099607
  0
SOLID
  8
0
 62
7
  6
CONTINUOUS
 10
22.5911604757
 20
11.1871839334
 11
22.6030660713
 21
11.21099607
 12
27.5379354592
 22
11.20504029
 13
27.5379354592
 23
11.20504029
  0
SOLID
  8
0
 62
7
  6
CONTINUOUS
 10
27.5379354592
 20
11.20504029
 11
27.4843602789
 21
11.1812311356
 12
22.5911604757
 22
11.1871839334
 13
22.5911604757
 23
11.1871839334
  0
SOLID
  8
0
 62
7
  6
CONTINUOUS
 10
22.5792548801
 20
11.1633687973
 11
22.5911604757
 21
11.1871839334
 12
27.4843602789
 22
11.1812311356
 13
27.4843602789
 23
11.1812311356
  0
SOLID
  8
0
 62
7
  6
CONTINUOUS
 10
27.4843602789
 20
11.1812311356
 11
27.4248323007
 21
11.1574199443
 12
22.5792548801
 22
11.1633687973
 13
22.5792548801
 23
11.1633687973
  0
SOLID
  8
0
 62
7
  6
CONTINUOUS
 10
22.5554436888
 20
11.1276530846
 11
22.5792548801
 21
11.1633687973
 12
27.4248323007
 22
11.1574199443
 13
27.4248323007
 23
11.1574199443
  0
SOLID
  8
0
 62
7
  6
CONTINUOUS
 10
37.88389806
 20
11.8777115024
 11
38.0089068141
 21
11.883657804
 12
38.1160571748
 22
11.883657804
 13
38.1160571748
 23
11.883657804
  0
SOLID
  8
0
 62
7
  6
CONTINUOUS
 10
37.88389806
 20
11.8777115024
 11
38.1160571748
 21
11.883657804
 12
34.4669921148
 22
11.7288928716
 13
34.4669921148
 23
11.7288928716
  0
SOLID
  8
0
 62
7
  6
CONTINUOUS
 10
38.1160571748
 20
11.883657804
 11
34.4848505082
 21
11.6455498861
 12
34.4669921148
 22
11.7288928716
 13
34.4669921148
 23
11.7288928716
  0
SOLID
  8
0
 62
7
  6
CONTINUOUS
 10
8.5003857868
 20
11.8438297026
 11
9.166567847
 21
12.3033980345
 12
9.240575097
 22
12.0209062836
 13
9.240575097
 23
12.0209062836
  0
SOLID
  8
0
 62
7
  6
CONTINUOUS
 10
9.240575097
 20
12.0209062836
 11
9.3350458384
 21
11.7445789546
 12
8.5003857868
 22
11.8438297026
 13
8.5003857868
 23
11.8438297026
  0
SOLID
  8
0
 62
7
  6
CONTINUOUS
 10
8.7510158945
 20
11.1754333349
 11
8.5003857868
 21
11.8438297026
 12
9.3350458384
 22
11.7445789546
 13
9.3350458384
 23
11.7445789546
  0
SOLID
  8
0
 62
7
  6
CONTINUOUS
 10
26.1390279729
 20
11.9372408514
 11
28.0974984537
 21
11.9431871477
 12
26.1211695794
 22
11.9253292914
 13
26.1211695794
 23
11.9253292914
  0
SOLID
  8
0
 62
7
  6
CONTINUOUS
 10
26.1211695794
 20
11.9253292914
 11
28.0974984537
 21
11.9431871477
 12
26.103311186
 22
11.9193735114
 13
26.103311186
 23
11.9193735114
  0
SOLID
  8
0
 62
7
  6
CONTINUOUS
 10
26.103311186
 20
11.9193735114
 11
28.0974984537
 21
11.9431871477
 12
26.0735471969
 22
11.907471435
 13
26.0735471969
 23
11.907471435
  0
SOLID
  8
0
 62
7
  6
CONTINUOUS
 10
26.0735471969
 20
11.907471435
 11
28.0974984537
 21
11.9431871477
 12
26.0437832078
 22
11.901515655
 13
26.0437832078
 23
11.901515655
  0
SOLID
  8
0
 62
7
  6
CONTINUOUS
 10
26.0437832078
 20
11.901515655
 11
28.0974984537
 21
11.9431871477
 12
26.0140192188
 22
11.8955693587
 13
26.0140192188
 23
11.8955693587
  0
SOLID
  8
0
 62
7
  6
CONTINUOUS
 10
28.0974984537
 20
11.9431871477
 11
25.9723496341
 21
11.8836577987
 12
26.0140192188
 22
11.8955693587
 13
26.0140192188
 23
11.8955693587
  0
SOLID
  8
0
 62
7
  6
CONTINUOUS
 10
37.88389806
 20
11.8777115612
 11
34.461039317
 21
11.8122263733
 12
37.7588893059
 22
11.8777115612
 13
37.7588893059
 23
11.8777115612
  0
SOLID
  8
0
 62
7
  6
CONTINUOUS
 10
37.7588893059
 20
11.8777115612
 11
34.461039317
 21
11.8122263733
 12
36.669527306
 22
11.8777115612
 13
36.669527306
 23
11.8777115612
  0
SOLID
  8
0
 62
7
  6
CONTINUOUS
 10
36.669527306
 20
11.8777115612
 11
34.461039317
 21
11.8122263733
 12
36.5980937322
 22
11.8836577987
 13
36.5980937322
 23
11.8836577987
  0
SOLID
  8
0
 62
7
  6
CONTINUOUS
 10
34.461039317
 20
11.8122263733
 11
36.5385657541
 21
11.8896135787
 12
36.5980937322
 22
11.8836577987
 13
36.5980937322
 23
11.8836577987
  0
SOLID
  8
0
 62
7
  6
CONTINUOUS
 10
37.88389806
 20
11.8777115612
 11
34.4669921148
 21
11.7288928716
 12
34.461039317
 22
11.8122263733
 13
34.461039317
 23
11.8122263733
  0
SOLID
  8
0
 62
7
  6
CONTINUOUS
 10
22.0732670659
 20
11.8062705933
 11
22.0613614702
 21
11.7348390996
 12
20.1445605741
 22
11.7348390996
 13
20.1445605741
 23
11.7348390996
  0
SOLID
  8
0
 62
7
  6
CONTINUOUS
 10
20.1326549785
 20
11.6991245454
 11
20.1445605741
 21
11.7348390996
 12
22.0613614702
 22
11.7348390996
 13
22.0613614702
 23
11.7348390996
  0
SOLID
  8
0
 62
7
  6
CONTINUOUS
 10
22.0613614702
 20
11.7348390996
 11
22.0494558746
 21
11.6693605563
 12
20.1326549785
 22
11.6991245454
 13
20.1326549785
 23
11.6991245454
  0
SOLID
  8
0
 62
7
  6
CONTINUOUS
 10
20.1207493828
 20
11.6634077585
 11
20.1326549785
 21
11.6991245454
 12
22.0494558746
 22
11.6693605563
 13
22.0494558746
 23
11.6693605563
  0
SOLID
  8
0
 62
7
  6
CONTINUOUS
 10
20.1207493828
 20
11.6634077585
 11
22.0494558746
 21
11.6693605563
 12
20.1088437872
 22
11.6276920298
 13
20.1088437872
 23
11.6276920298
  0
SOLID
  8
0
 62
7
  6
CONTINUOUS
 10
22.0494558746
 20
11.6693605563
 11
22.0435030768
 21
11.6038797804
 12
20.1088437872
 22
11.6276920298
 13
20.1088437872
 23
11.6276920298
  0
SOLID
  8
0
 62
7
  6
CONTINUOUS
 10
20.0969381916
 20
11.5919741847
 11
20.1088437872
 21
11.6276920298
 12
22.0435030768
 22
11.6038797804
 13
22.0435030768
 23
11.6038797804
  0
SOLID
  8
0
 62
7
  6
CONTINUOUS
 10
20.0969381916
 20
11.5919741847
 11
22.0435030768
 21
11.6038797804
 12
20.085032596
 22
11.5562573979
 13
20.085032596
 23
11.5562573979
  0
SOLID
  8
0
 62
7
  6
CONTINUOUS
 10
22.0435030768
 20
11.6038797804
 11
22.0315974812
 21
11.5383990044
 12
20.085032596
 22
11.5562573979
 13
20.085032596
 23
11.5562573979
  0
SOLID
  8
0
 62
7
  6
CONTINUOUS
 10
20.0731270003
 20
11.5205448917
 11
20.085032596
 21
11.5562573979
 12
22.0315974812
 22
11.5383990044
 13
22.0315974812
 23
11.5383990044
  0
SOLID
  8
0
 62
7
  6
CONTINUOUS
 10
20.0731270003
 20
11.5205448917
 11
22.0315974812
 21
11.5383990044
 12
20.0612214047
 22
11.4848238241
 13
20.0612214047
 23
11.4848238241
  0
SOLID
  8
0
 62
7
  6
CONTINUOUS
 10
22.0315974812
 20
11.5383990044
 11
22.0315974812
 21
11.4788710263
 12
20.0612214047
 22
11.4848238241
 13
20.0612214047
 23
11.4848238241
  0
SOLID
  8
0
 62
7
  6
CONTINUOUS
 10
20.0493158091
 20
11.4491039826
 11
20.0612214047
 21
11.4848238241
 12
22.0315974812
 22
11.4788710263
 13
22.0315974812
 23
11.4788710263
  0
SOLID
  8
0
 62
7
  6
CONTINUOUS
 10
22.0315974812
 20
11.4788710263
 11
22.0256446833
 21
11.4312486438
 12
20.0493158091
 22
11.4491039826
 13
20.0493158091
 23
11.4491039826
  0
SOLID
  8
0
 62
7
  6
CONTINUOUS
 10
20.0314574156
 20
11.4133882699
 11
20.0493158091
 21
11.4491039826
 12
22.0256446833
 22
11.4312486438
 13
22.0256446833
 23
11.4312486438
  0
SOLID
  8
0
 62
7
  6
CONTINUOUS
 10
22.0256446833
 20
11.4312486438
 11
22.0256446833
 21
11.3836283372
 12
20.0314574156
 22
11.4133882699
 13
20.0314574156
 23
11.4133882699
  0
SOLID
  8
0
 62
7
  6
CONTINUOUS
 10
20.0135990222
 20
11.3776734634
 11
20.0314574156
 21
11.4133882699
 12
22.0256446833
 22
11.3836283372
 13
22.0256446833
 23
11.3836283372
  0
SOLID
  8
0
 62
7
  6
CONTINUOUS
 10
22.0256446833
 20
11.3836283372
 11
22.0256446833
 21
11.3419568445
 12
20.0135990222
 22
11.3776734634
 13
20.0135990222
 23
11.3776734634
  0
SOLID
  8
0
 62
7
  6
CONTINUOUS
 10
20.0016934266
 20
11.3360038787
 11
20.0135990222
 21
11.3776734634
 12
22.0256446833
 22
11.3419568445
 13
22.0256446833
 23
11.3419568445
  0
SOLID
  8
0
 62
7
  6
CONTINUOUS
 10
20.0016934266
 20
11.3360038787
 11
22.0256446833
 21
11.3419568445
 12
19.9838350331
 22
11.3002851499
 13
19.9838350331
 23
11.3002851499
  0
SOLID
  8
0
 62
7
  6
CONTINUOUS
 10
22.0256446833
 20
11.3419568445
 11
22.0256446833
 21
11.3002851499
 12
19.9838350331
 22
11.3002851499
 13
19.9838350331
 23
11.3002851499
  0
SOLID
  8
0
 62
7
  6
CONTINUOUS
 10
19.9719294375
 20
11.264569639
 11
19.9838350331
 21
11.3002851499
 12
22.0256446833
 22
11.3002851499
 13
22.0256446833
 23
11.3002851499
  0
SOLID
  8
0
 62
7
  6
CONTINUOUS
 10
22.0256446833
 20
11.3002851499
 11
22.0315974812
 21
11.258613859
 12
19.9719294375
 22
11.264569639
 13
19.9719294375
 23
11.264569639
  0
SOLID
  8
0
 62
7
  6
CONTINUOUS
 10
19.9600238419
 20
11.2348097064
 11
19.9719294375
 21
11.264569639
 12
22.0315974812
 22
11.258613859
 13
22.0315974812
 23
11.258613859
  0
SOLID
  8
0
 62
7
  6
CONTINUOUS
 10
22.0315974812
 20
11.258613859
 11
22.037550279
 21
11.21099607
 12
19.9600238419
 22
11.2348097064
 13
19.9600238419
 23
11.2348097064
  0
SOLID
  8
0
 62
7
  6
CONTINUOUS
 10
19.9362126506
 20
11.199089529
 11
19.9600238419
 21
11.2348097064
 12
22.037550279
 22
11.21099607
 13
22.037550279
 23
11.21099607
  0
SOLID
  8
0
 62
7
  6
CONTINUOUS
 10
19.9362126506
 20
11.199089529
 11
22.037550279
 21
11.21099607
 12
19.9183542572
 22
11.1633686485
 13
19.9183542572
 23
11.1633686485
  0
SOLID
  8
0
 62
7
  6
CONTINUOUS
 10
22.037550279
 20
11.21099607
 11
22.037550279
 21
11.1633686485
 12
19.9183542572
 22
11.1633686485
 13
19.9183542572
 23
11.1633686485
  0
SOLID
  8
0
 62
7
  6
CONTINUOUS
 10
19.8945430659
 20
11.1276530846
 11
19.9183542572
 21
11.1633686485
 12
22.037550279
 22
11.1633686485
 13
22.037550279
 23
11.1633686485
  0
SOLID
  8
0
 62
7
  6
CONTINUOUS
 10
22.037550279
 20
11.1633686485
 11
22.0435030768
 21
11.1157510082
 12
19.8945430659
 22
11.1276530846
 13
19.8945430659
 23
11.1276530846
  0
SOLID
  8
0
 62
7
  6
CONTINUOUS
 10
19.8647790768
 20
11.0919373719
 11
19.8945430659
 21
11.1276530846
 12
22.0435030768
 22
11.1157510082
 13
22.0435030768
 23
11.1157510082
  0
SOLID
  8
0
 62
7
  6
CONTINUOUS
 10
22.0435030768
 20
11.1157510082
 11
22.0435030768
 21
11.0681279771
 12
19.8647790768
 22
11.0919373719
 13
19.8647790768
 23
11.0919373719
  0
SOLID
  8
0
 62
7
  6
CONTINUOUS
 10
19.8409678856
 20
11.0621774392
 11
19.8647790768
 21
11.0919373719
 12
22.0435030768
 22
11.0681279771
 13
22.0435030768
 23
11.0681279771
  0
SOLID
  8
0
 62
7
  6
CONTINUOUS
 10
19.8409678856
 20
11.0621774392
 11
22.0435030768
 21
11.0681279771
 12
19.8112038965
 22
11.0264615048
 13
19.8112038965
 23
11.0264615048
  0
SOLID
  8
0
 62
7
  6
CONTINUOUS
 10
22.0435030768
 20
11.0681279771
 11
22.0435030768
 21
11.0264615048
 12
19.8112038965
 22
11.0264615048
 13
19.8112038965
 23
11.0264615048
  0
SOLID
  8
0
 62
7
  6
CONTINUOUS
 10
22.0732670659
 20
11.0264615048
 11
19.8112038965
 21
11.0264615048
 12
22.0435030768
 22
11.0264615048
 13
22.0435030768
 23
11.0264615048
  0
SOLID
  8
0
 62
7
  6
CONTINUOUS
 10
28.6451558526
 20
11.5681626807
 11
33.7169395902
 21
11.6276920298
 12
33.6693172077
 22
11.5741184607
 13
33.6693172077
 23
11.5741184607
  0
SOLID
  8
0
 62
7
  6
CONTINUOUS
 10
33.6693172077
 20
11.5741184607
 11
33.627647623
 21
11.5205448917
 12
28.6451558526
 22
11.5681626807
 13
28.6451558526
 23
11.5681626807
  0
SOLID
  8
0
 62
7
  6
CONTINUOUS
 10
28.6749198417
 20
11.4907754753
 11
28.6451558526
 21
11.5681626807
 12
33.627647623
 22
11.5205448917
 13
33.627647623
 23
11.5205448917
  0
SOLID
  8
0
 62
7
  6
CONTINUOUS
 10
33.627647623
 20
11.5205448917
 11
33.5800252405
 21
11.4669618389
 12
28.6749198417
 22
11.4907754753
 13
28.6749198417
 23
11.4907754753
  0
SOLID
  8
0
 62
7
  6
CONTINUOUS
 10
28.7046838307
 20
11.4133882699
 11
28.6749198417
 21
11.4907754753
 12
33.5800252405
 22
11.4669618389
 13
33.5800252405
 23
11.4669618389
  0
SOLID
  8
0
 62
7
  6
CONTINUOUS
 10
39.3959087048
 20
11.5681626807
 11
44.4617396446
 21
11.6336437694
 12
44.4200700599
 22
11.5741184607
 13
44.4200700599
 23
11.5741184607
  0
SOLID
  8
0
 62
7
  6
CONTINUOUS
 10
44.4200700599
 20
11.5741184607
 11
44.3724476774
 21
11.5205448917
 12
39.3959087048
 22
11.5681626807
 13
39.3959087048
 23
11.5681626807
  0
SOLID
  8
0
 62
7
  6
CONTINUOUS
 10
39.4256726939
 20
11.4907754753
 11
39.3959087048
 21
11.5681626807
 12
44.3724476774
 22
11.5205448917
 13
44.3724476774
 23
11.5205448917
  0
SOLID
  8
0
 62
7
  6
CONTINUOUS
 10
44.3724476774
 20
11.5205448917
 11
44.3307780927
 21
11.4669618389
 12
39.4256726939
 22
11.4907754753
 13
39.4256726939
 23
11.4907754753
  0
SOLID
  8
0
 62
7
  6
CONTINUOUS
 10
39.455436683
 20
11.4133882699
 11
39.4256726939
 21
11.4907754753
 12
44.3307780927
 22
11.4669618389
 13
44.3307780927
 23
11.4669618389
  0
SOLID
  8
0
 62
7
  6
CONTINUOUS
 10
28.7046838307
 20
11.4133882699
 11
33.5800252405
 21
11.4669618389
 12
33.532402858
 22
11.4252998299
 13
33.532402858
 23
11.4252998299
  0
SOLID
  8
0
 62
7
  6
CONTINUOUS
 10
33.532402858
 20
11.4252998299
 11
33.4847804754
 21
11.3836283372
 12
28.7046838307
 22
11.4133882699
 13
28.7046838307
 23
11.4133882699
  0
SOLID
  8
0
 62
7
  6
CONTINUOUS
 10
28.7404006176
 20
11.3479126245
 11
28.7046838307
 21
11.4133882699
 12
33.4847804754
 22
11.3836283372
 13
33.4847804754
 23
11.3836283372
  0
SOLID
  8
0
 62
7
  6
CONTINUOUS
 10
33.4847804754
 20
11.3836283372
 11
33.4371580929
 21
11.3419568445
 12
28.7404006176
 22
11.3479126245
 13
28.7404006176
 23
11.3479126245
  0
SOLID
  8
0
 62
7
  6
CONTINUOUS
 10
28.7820702023
 20
11.2824274954
 11
28.7404006176
 21
11.3479126245
 12
33.4371580929
 22
11.3419568445
 13
33.4371580929
 23
11.3419568445
  0
SOLID
  8
0
 62
7
  6
CONTINUOUS
 10
39.455436683
 20
11.4133882699
 11
44.3307780927
 21
11.4669618389
 12
44.2831557102
 22
11.4252998299
 13
44.2831557102
 23
11.4252998299
  0
SOLID
  8
0
 62
7
  6
CONTINUOUS
 10
44.2831557102
 20
11.4252998299
 11
44.2414861255
 21
11.3836283372
 12
39.455436683
 22
11.4133882699
 13
39.455436683
 23
11.4133882699
  0
SOLID
  8
0
 62
7
  6
CONTINUOUS
 10
39.4971062677
 20
11.3479126245
 11
39.455436683
 21
11.4133882699
 12
44.2414861255
 22
11.3836283372
 13
44.2414861255
 23
11.3836283372
  0
SOLID
  8
0
 62
7
  6
CONTINUOUS
 10
44.2414861255
 20
11.3836283372
 11
44.193863743
 21
11.3419568445
 12
39.4971062677
 22
11.3479126245
 13
39.4971062677
 23
11.3479126245
  0
SOLID
  8
0
 62
7
  6
CONTINUOUS
 10
39.5387758524
 20
11.2824274954
 11
39.4971062677
 21
11.3479126245
 12
44.193863743
 22
11.3419568445
 13
44.193863743
 23
11.3419568445
  0
SOLID
  8
0
 62
7
  6
CONTINUOUS
 10
28.7820702023
 20
11.2824274954
 11
33.4371580929
 21
11.3419568445
 12
33.3835829126
 22
11.3002853517
 13
33.3835829126
 23
11.3002853517
  0
SOLID
  8
0
 62
7
  6
CONTINUOUS
 10
33.3835829126
 20
11.3002853517
 11
33.3300077323
 21
11.258613859
 12
28.7820702023
 22
11.2824274954
 13
28.7820702023
 23
11.2824274954
  0
SOLID
  8
0
 62
7
  6
CONTINUOUS
 10
28.8356453826
 20
11.2228980943
 11
28.7820702023
 21
11.2824274954
 12
33.3300077323
 22
11.258613859
 13
33.3300077323
 23
11.258613859
  0
SOLID
  8
0
 62
7
  6
CONTINUOUS
 10
33.3300077323
 20
11.258613859
 11
33.2704797541
 21
11.2228980943
 12
28.8356453826
 22
11.2228980943
 13
28.8356453826
 23
11.2228980943
  0
SOLID
  8
0
 62
7
  6
CONTINUOUS
 10
28.9011261586
 20
11.1693245773
 11
28.8356453826
 21
11.2228980943
 12
33.2704797541
 22
11.2228980943
 13
33.2704797541
 23
11.2228980943
  0
SOLID
  8
0
 62
7
  6
CONTINUOUS
 10
39.5387758524
 20
11.2824274954
 11
44.193863743
 21
11.3419568445
 12
44.1402885626
 22
11.3062398897
 13
44.1402885626
 23
11.3062398897
  0
SOLID
  8
0
 62
7
  6
CONTINUOUS
 10
44.1402885626
 20
11.3062398897
 11
44.0867133823
 21
11.2705231028
 12
39.5387758524
 22
11.2824274954
 13
39.5387758524
 23
11.2824274954
  0
SOLID
  8
0
 62
7
  6
CONTINUOUS
 10
39.5923510327
 20
11.2228981463
 11
39.5387758524
 21
11.2824274954
 12
44.0867133823
 22
11.2705231028
 13
44.0867133823
 23
11.2705231028
  0
SOLID
  8
0
 62
7
  6
CONTINUOUS
 10
39.5923510327
 20
11.2228981463
 11
44.0867133823
 21
11.2705231028
 12
44.0271854042
 22
11.2348097064
 13
44.0271854042
 23
11.2348097064
  0
SOLID
  8
0
 62
7
  6
CONTINUOUS
 10
44.0271854042
 20
11.2348097064
 11
43.967657426
 21
11.20504029
 12
39.5923510327
 22
11.2228981463
 13
39.5923510327
 23
11.2228981463
  0
SOLID
  8
0
 62
7
  6
CONTINUOUS
 10
39.6578318086
 20
11.1693245773
 11
39.5923510327
 21
11.2228981463
 12
43.967657426
 22
11.20504029
 13
43.967657426
 23
11.20504029
  0
SOLID
  8
0
 62
7
  6
CONTINUOUS
 10
9.5832466776
 20
11.2163259241
 11
8.7510158945
 21
11.1754333349
 12
9.4494740184
 22
11.4759049927
 13
9.4494740184
 23
11.4759049927
  0
SOLID
  8
0
 62
7
  6
CONTINUOUS
 10
8.7510158945
 20
11.1754333349
 11
9.3350458384
 21
11.7445789546
 12
9.4494740184
 22
11.4759049927
 13
9.4494740184
 23
11.4759049927
  0
SOLID
  8
0
 62
7
  6
CONTINUOUS
 10
9.5832466776
 20
11.2163259241
 11
9.7356472339
 21
10.9672168892
 12
8.7510158945
 22
11.1754333349
 13
8.7510158945
 23
11.1754333349
  0
SOLID
  8
0
 62
7
  6
CONTINUOUS
 10
9.0989799845
 20
10.552143557
 11
8.7510158945
 21
11.1754333349
 12
9.7356472339
 22
10.9672168892
 13
9.7356472339
 23
10.9672168892
  0
SOLID
  8
0
 62
7
  6
CONTINUOUS
 10
28.9011261586
 20
11.1693245773
 11
33.2704797541
 21
11.2228981463
 12
33.210951776
 22
11.1931367312
 13
33.210951776
 23
11.1931367312
  0
SOLID
  8
0
 62
7
  6
CONTINUOUS
 10
33.210951776
 20
11.1931367312
 11
33.1514237979
 21
11.1633687973
 12
28.9011261586
 22
11.1693245773
 13
28.9011261586
 23
11.1693245773
  0
SOLID
  8
0
 62
7
  6
CONTINUOUS
 10
28.984465328
 20
11.1276530846
 11
28.9011261586
 21
11.1693245773
 12
33.1514237979
 22
11.1633687973
 13
33.1514237979
 23
11.1633687973
  0
SOLID
  8
0
 62
7
  6
CONTINUOUS
 10
39.6578318086
 20
11.1693245773
 11
43.967657426
 21
11.20504029
 12
43.9021766501
 22
11.1752783378
 13
43.9021766501
 23
11.1752783378
  0
SOLID
  8
0
 62
7
  6
CONTINUOUS
 10
43.9021766501
 20
11.1752783378
 11
43.8366958741
 21
11.1455143487
 12
39.6578318086
 22
11.1693245773
 13
39.6578318086
 23
11.1693245773
  0
SOLID
  8
0
 62
7
  6
CONTINUOUS
 10
39.7471237759
 20
11.1276530846
 11
39.6578318086
 21
11.1693245773
 12
43.8366958741
 22
11.1455143487
 13
43.8366958741
 23
11.1455143487
  0
SOLID
  8
0
 62
7
  6
CONTINUOUS
 10
43.8366958741
 20
11.1455143487
 11
43.7712150982
 21
11.1217031574
 12
39.7471237759
 22
11.1276530846
 13
39.7471237759
 23
11.1276530846
  0
SOLID
  8
0
 62
7
  6
CONTINUOUS
 10
39.8423685409
 20
11.0919373719
 11
39.7471237759
 21
11.1276530846
 12
43.7712150982
 22
11.1217031574
 13
43.7712150982
 23
11.1217031574
  0
SOLID
  8
0
 62
7
  6
CONTINUOUS
 10
22.5554436888
 20
11.1276530846
 11
27.4248323007
 21
11.1574199443
 12
27.3653043226
 22
11.1336087531
 13
27.3653043226
 23
11.1336087531
  0
SOLID
  8
0
 62
7
  6
CONTINUOUS
 10
27.3653043226
 20
11.1336087531
 11
27.2998235466
 21
11.1097975618
 12
22.5554436888
 22
11.1276530846
 13
22.5554436888
 23
11.1276530846
  0
SOLID
  8
0
 62
7
  6
CONTINUOUS
 10
22.5316324975
 20
11.0919373875
 11
22.5554436888
 21
11.1276530846
 12
27.2998235466
 22
11.1097975618
 13
27.2998235466
 23
11.1097975618
  0
SOLID
  8
0
 62
7
  6
CONTINUOUS
 10
27.2998235466
 20
11.1097975618
 11
27.2283899728
 21
11.0919373875
 12
22.5316324975
 22
11.0919373875
 13
22.5316324975
 23
11.0919373875
  0
SOLID
  8
0
 62
7
  6
CONTINUOUS
 10
22.5078213063
 20
11.0562223815
 11
22.5316324975
 21
11.0919373875
 12
27.2283899728
 22
11.0919373875
 13
27.2283899728
 23
11.0919373875
  0
SOLID
  8
0
 62
7
  6
CONTINUOUS
 10
28.984465328
 20
11.1276530846
 11
33.1514237979
 21
11.1633687973
 12
33.0918958197
 22
11.1395615509
 13
33.0918958197
 23
11.1395615509
  0
SOLID
  8
0
 62
7
  6
CONTINUOUS
 10
33.0918958197
 20
11.1395615509
 11
33.0264150438
 21
11.1157510082
 12
28.984465328
 22
11.1276530846
 13
28.984465328
 23
11.1276530846
  0
SOLID
  8
0
 62
7
  6
CONTINUOUS
 10
29.079710093
 20
11.0919374095
 11
28.984465328
 21
11.1276530846
 12
33.0264150438
 22
11.1157510082
 13
33.0264150438
 23
11.1157510082
  0
SOLID
  8
0
 62
7
  6
CONTINUOUS
 10
33.0264150438
 20
11.1157510082
 11
32.9609342678
 21
11.0919374095
 12
29.079710093
 22
11.0919374095
 13
29.079710093
 23
11.0919374095
  0
SOLID
  8
0
 62
7
  6
CONTINUOUS
 10
29.1868604537
 20
11.0621774392
 11
29.079710093
 21
11.0919374095
 12
32.9609342678
 22
11.0919374095
 13
32.9609342678
 23
11.0919374095
  0
SOLID
  8
0
 62
7
  6
CONTINUOUS
 10
39.8423685409
 20
11.0919373719
 11
43.7712150982
 21
11.1217031574
 12
43.7057343222
 22
11.0978919662
 13
43.7057343222
 23
11.0978919662
  0
SOLID
  8
0
 62
7
  6
CONTINUOUS
 10
43.7057343222
 20
11.0978919662
 11
43.6402535463
 21
11.0800352955
 12
39.8423685409
 22
11.0919373719
 13
39.8423685409
 23
11.0919373719
  0
SOLID
  8
0
 62
7
  6
CONTINUOUS
 10
39.9554716993
 20
11.0621774592
 11
39.8423685409
 21
11.0919373719
 12
43.6402535463
 22
11.0800352955
 13
43.6402535463
 23
11.0800352955
  0
SOLID
  8
0
 62
7
  6
CONTINUOUS
 10
43.6402535463
 20
11.0800352955
 11
43.5688199725
 21
11.0621774592
 12
39.9554716993
 22
11.0621774592
 13
39.9554716993
 23
11.0621774592
  0
SOLID
  8
0
 62
7
  6
CONTINUOUS
 10
40.0745276556
 20
11.0443195828
 11
39.9554716993
 21
11.0621774592
 12
43.5688199725
 22
11.0621774592
 13
43.5688199725
 23
11.0621774592
  0
SOLID
  8
0
 62
7
  6
CONTINUOUS
 10
29.1868604537
 20
11.0621774222
 11
32.9609342678
 21
11.0919373719
 12
32.8954534918
 22
11.0740807749
 13
32.8954534918
 23
11.0740807749
  0
SOLID
  8
0
 62
7
  6
CONTINUOUS
 10
32.8954534918
 20
11.0740807749
 11
32.8240199181
 21
11.0621774222
 12
29.1868604537
 22
11.0621774222
 13
29.1868604537
 23
11.0621774222
  0
SOLID
  8
0
 62
7
  6
CONTINUOUS
 10
29.30591641
 20
11.0443195828
 11
29.1868604537
 21
11.0621774222
 12
32.8240199181
 22
11.0621774222
 13
32.8240199181
 23
11.0621774222
  0
SOLID
  8
0
 62
7
  6
CONTINUOUS
 10
27.0855228253
 20
11.0621774392
 11
22.5078213063
 21
11.0562223815
 12
27.1569563991
 22
11.0800352955
 13
27.1569563991
 23
11.0800352955
  0
SOLID
  8
0
 62
7
  6
CONTINUOUS
 10
22.5078213063
 20
11.0562223815
 11
27.2283899728
 21
11.0919373719
 12
27.1569563991
 22
11.0800352955
 13
27.1569563991
 23
11.0800352955
  0
SOLID
  8
0
 62
7
  6
CONTINUOUS
 10
27.0855228253
 20
11.0621774392
 11
27.0021836559
 21
11.0502658791
 12
22.5078213063
 22
11.0562223815
 13
22.5078213063
 23
11.0562223815
  0
SOLID
  8
0
 62
7
  6
CONTINUOUS
 10
22.4899629128
 20
11.0264617265
 11
22.5078213063
 21
11.0562223815
 12
27.0021836559
 22
11.0502658791
 13
27.0021836559
 23
11.0502658791
  0
SOLID
  8
0
 62
7
  6
CONTINUOUS
 10
29.30591641
 20
11.0443195828
 11
32.8240199181
 21
11.0621774392
 12
32.7525863443
 22
11.0502658791
 13
32.7525863443
 23
11.0502658791
  0
SOLID
  8
0
 62
7
  6
CONTINUOUS
 10
32.7525863443
 20
11.0502658791
 11
32.6811527705
 21
11.0383638028
 12
29.30591641
 22
11.0443195828
 13
29.30591641
 23
11.0443195828
  0
SOLID
  8
0
 62
7
  6
CONTINUOUS
 10
29.4428307597
 20
11.032408038
 11
29.30591641
 21
11.0443195828
 12
32.6811527705
 22
11.0383638028
 13
32.6811527705
 23
11.0383638028
  0
SOLID
  8
0
 62
7
  6
CONTINUOUS
 10
32.6811527705
 20
11.0383638028
 11
32.6097191968
 21
11.032408038
 12
29.4428307597
 22
11.032408038
 13
29.4428307597
 23
11.032408038
  0
SOLID
  8
0
 62
7
  6
CONTINUOUS
 10
29.5856979072
 20
11.026461729
 11
29.4428307597
 21
11.032408038
 12
32.6097191968
 22
11.032408038
 13
32.6097191968
 23
11.032408038
  0
SOLID
  8
0
 62
7
  6
CONTINUOUS
 10
29.5856979072
 20
11.026461729
 11
32.6097191968
 21
11.032408038
 12
32.4608992514
 22
11.026461729
 13
32.4608992514
 23
11.026461729
  0
SOLID
  8
0
 62
7
  6
CONTINUOUS
 10
32.6097191968
 20
11.032408038
 11
32.538285623
 21
11.026461729
 12
32.4608992514
 22
11.026461729
 13
32.4608992514
 23
11.026461729
  0
SOLID
  8
0
 62
7
  6
CONTINUOUS
 10
40.0745276556
 20
11.0443195828
 11
43.5688199725
 21
11.0621774392
 12
43.4973863987
 22
11.0502658791
 13
43.4973863987
 23
11.0502658791
  0
SOLID
  8
0
 62
7
  6
CONTINUOUS
 10
43.4973863987
 20
11.0502658791
 11
43.4259528249
 21
11.0383638028
 12
40.0745276556
 22
11.0443195828
 13
40.0745276556
 23
11.0443195828
  0
SOLID
  8
0
 62
7
  6
CONTINUOUS
 10
40.2114420053
 20
11.032408038
 11
40.0745276556
 21
11.0443195828
 12
43.4259528249
 22
11.0383638028
 13
43.4259528249
 23
11.0383638028
  0
SOLID
  8
0
 62
7
  6
CONTINUOUS
 10
43.4259528249
 20
11.0383638028
 11
43.3545192512
 21
11.032408038
 12
40.2114420053
 22
11.032408038
 13
40.2114420053
 23
11.032408038
  0
SOLID
  8
0
 62
7
  6
CONTINUOUS
 10
40.3483563551
 20
11.026461729
 11
40.2114420053
 21
11.032408038
 12
43.3545192512
 22
11.032408038
 13
43.3545192512
 23
11.032408038
  0
SOLID
  8
0
 62
7
  6
CONTINUOUS
 10
40.3483563551
 20
11.026461729
 11
43.3545192512
 21
11.032408038
 12
43.2116521036
 22
11.026461729
 13
43.2116521036
 23
11.026461729
  0
SOLID
  8
0
 62
7
  6
CONTINUOUS
 10
43.3545192512
 20
11.032408038
 11
43.2830856774
 21
11.026461729
 12
43.2116521036
 22
11.026461729
 13
43.2116521036
 23
11.026461729
  0
SOLID
  8
0
 62
7
  6
CONTINUOUS
 10
26.7521661477
 20
11.0324080228
 11
22.4899629128
 21
11.0264617304
 12
26.8414581149
 22
11.0383638028
 13
26.8414581149
 23
11.0383638028
  0
SOLID
  8
0
 62
7
  6
CONTINUOUS
 10
26.8414581149
 20
11.0383638028
 11
22.4899629128
 21
11.0264617304
 12
26.9247972843
 22
11.0443195828
 13
26.9247972843
 23
11.0443195828
  0
SOLID
  8
0
 62
7
  6
CONTINUOUS
 10
22.4899629128
 20
11.0264617304
 11
27.0021836559
 21
11.0502658791
 12
26.9247972843
 22
11.0443195828
 13
26.9247972843
 23
11.0443195828
  0
SOLID
  8
0
 62
7
  6
CONTINUOUS
 10
22.4899629128
 20
11.0264617304
 11
26.7521661477
 21
11.0324080228
 12
26.5676294155
 22
11.0264617304
 13
26.5676294155
 23
11.0264617304
  0
SOLID
  8
0
 62
7
  6
CONTINUOUS
 10
26.7521661477
 20
11.0324080228
 11
26.6628741805
 21
11.0264617304
 12
26.5676294155
 22
11.0264617304
 13
26.5676294155
 23
11.0264617304
  0
SOLID
  8
0
 62
7
  6
CONTINUOUS
 10
38.8422985081
 20
12.0086722768
 11
38.878015295
 21
12.0265284252
 12
38.812534519
 22
11.9848588405
 13
38.812534519
 23
11.9848588405
  0
SOLID
  8
0
 62
7
  6
CONTINUOUS
 10
38.878015295
 20
12.0265284252
 11
38.9137320819
 21
12.0443868186
 12
38.812534519
 22
11.9848588405
 13
38.812534519
 23
11.9848588405
  0
SOLID
  8
0
 62
7
  6
CONTINUOUS
 10
38.9137320819
 20
12.0443868186
 11
38.9494488688
 21
12.0622458459
 12
38.812534519
 22
11.9848588405
 13
38.812534519
 23
11.9848588405
  0
SOLID
  8
0
 62
7
  6
CONTINUOUS
 10
38.9494488688
 20
12.0622458459
 11
38.78277053
 21
11.9670007841
 12
38.812534519
 22
11.9848588405
 13
38.812534519
 23
11.9848588405
  0
SOLID
  8
0
 62
7
  6
CONTINUOUS
 10
38.5387058196
 20
11.907471435
 11
38.5744226065
 21
11.9134252667
 12
38.5029890327
 22
11.901515655
 13
38.5029890327
 23
11.901515655
  0
SOLID
  8
0
 62
7
  6
CONTINUOUS
 10
9.9058593208
 20
10.7299245771
 11
10.0929711604
 21
10.5057198071
 12
9.7356472339
 22
10.9672168892
 13
9.0989799845
 23
10.552143557
  0
SOLID
  8
0
 62
7
  6
CONTINUOUS
 10
16.3858151168
 20
10.9672168892
 11
17.3352226214
 21
11.1011182386
 12
16.2156030299
 22
10.7299245771
 13
16.2156030299
 23
10.7299245771
  0
SOLID
  8
0
 62
7
  6
CONTINUOUS
 10
16.2156030299
 20
10.7299245771
 11
17.3352226214
 21
11.1011182386
 12
16.0284911903
 22
10.5057198071
 13
16.0284911903
 23
10.5057198071
  0
SOLID
  8
0
 62
7
  6
CONTINUOUS
 10
17.3352226214
 20
11.1011182386
 11
16.9765196197
 21
10.483946211
 12
16.0284911903
 22
10.5057198071
 13
16.0284911903
 23
10.5057198071
  0
SOLID
  8
0
 62
7
  6
CONTINUOUS
 10
15.8254819029
 20
10.2957975287
 11
16.0284911903
 21
10.5057198071
 12
16.9765196197
 22
10.483946211
 13
16.9765196197
 23
10.483946211
  0
SOLID
  8
0
 62
7
  6
CONTINUOUS
 10
12.6914013019
 20
9.5131974358
 11
10.0534545581
 21
9.4958545812
 12
12.4790523582
 22
9.5833480513
 13
12.4790523582
 23
9.5833480513
  0
SOLID
  8
0
 62
7
  6
CONTINUOUS
 10
12.4790523582
 20
9.5833480513
 11
10.0534545581
 21
9.4958545812
 12
12.2792950042
 22
9.6838974535
 13
12.2792950042
 23
9.6838974535
  0
SOLID
  8
0
 62
7
  6
CONTINUOUS
 10
12.2792950042
 20
9.6838974535
 11
10.0534545581
 21
9.4958545812
 12
12.0964533834
 22
9.8126690516
 13
12.0964533834
 23
9.8126690516
  0
SOLID
  8
0
 62
7
  6
CONTINUOUS
 10
10.0534545581
 20
9.4958545812
 11
11.9344854648
 21
9.9668753293
 12
12.0964533834
 22
9.8126690516
 13
12.0964533834
 23
9.8126690516
  0
SOLID
  8
0
 62
7
  6
CONTINUOUS
 10
12.6914013019
 20
9.5131974358
 11
12.911745122
 21
9.4749641561
 12
10.0534545581
 22
9.4958545812
 13
10.0534545581
 23
9.4958545812
  0
SOLID
  8
0
 62
7
  6
CONTINUOUS
 10
10.6384084411
 20
9.0867114401
 11
10.0534545581
 21
9.4958545812
 12
12.911745122
 22
9.4749641561
 13
12.911745122
 23
9.4749641561
  0
SOLID
  8
0
 62
7
  6
CONTINUOUS
 10
13.3572684648
 20
9.4968513145
 11
16.0039004901
 21
9.4443404487
 12
13.1353140403
 22
9.4694758472
 13
13.1353140403
 23
9.4694758472
  0
SOLID
  8
0
 62
7
  6
CONTINUOUS
 10
16.0039004901
 20
9.4443404487
 11
10.6384084411
 21
9.0867114401
 12
13.1353140403
 22
9.4694758472
 13
13.1353140403
 23
9.4694758472
  0
SOLID
  8
0
 62
7
  6
CONTINUOUS
 10
10.6384084411
 20
9.0867114401
 11
12.911745122
 21
9.4749641561
 12
13.1353140403
 22
9.4694758472
 13
13.1353140403
 23
9.4694758472
  0
SOLID
  8
0
 62
7
  6
CONTINUOUS
 10
16.0039004901
 20
9.4443404487
 11
15.4119507538
 21
9.0453859842
 12
10.6384084411
 22
9.0867114401
 13
10.6384084411
 23
9.0867114401
  0
SOLID
  8
0
 62
7
  6
CONTINUOUS
 10
11.2780699561
 20
8.7698482184
 11
10.6384084411
 21
9.0867114401
 12
15.4119507538
 22
9.0453859842
 13
15.4119507538
 23
9.0453859842
  0
SOLID
  8
0
 62
7
  6
CONTINUOUS
 10
15.4119507538
 20
9.0453859842
 11
14.7668992347
 21
8.7396447655
 12
11.2780699561
 22
8.7698482184
 13
11.2780699561
 23
8.7698482184
  0
SOLID
  8
0
 62
7
  6
CONTINUOUS
 10
11.9579924871
 20
8.5524212031
 11
11.2780699561
 21
8.7698482184
 12
14.7668992347
 22
8.7396447655
 13
14.7668992347
 23
8.7396447655
  0
SOLID
  8
0
 62
7
  6
CONTINUOUS
 10
14.7668992347
 20
8.7396447655
 11
14.083314281
 21
8.5340218915
 12
11.9579924871
 22
8.5524212031
 13
11.9579924871
 23
8.5524212031
  0
SOLID
  8
0
 62
7
  6
CONTINUOUS
 10
12.6628201315
 20
8.4393409359
 11
11.9579924871
 21
8.5524212031
 12
14.083314281
 22
8.5340218915
 13
14.083314281
 23
8.5340218915
  0
SOLID
  8
0
 62
7
  6
CONTINUOUS
 10
14.083314281
 20
8.5340218915
 11
13.3766345103
 21
8.4331613103
 12
12.6628201315
 22
8.4393409359
 13
12.6628201315
 23
8.4393409359
  0
DIMENSION
  8
0
 62
2
  6
CONTINUOUS
  2
*D0
 10
86.6545454798
 20
277.4549881575
 11
74.1545454798
 21
277.4549881575
 70
128
 13
61.6545454798
 23
248.7054056411
 14
86.6545454798
 24
248.7054056411
  0
DIMENSION
  8
0
 62
2
  6
CONTINUOUS
  2
*D1
 10
111.3747269837
 20
41.2463057245
 11
98.8747269837
 21
41.2463057245
 70
128
 13
86.3747269837
 23
68.632605013
 14
111.3747269837
 24
68.8817929958
  0
DIMENSION
  8
0
 62
2
  6
CONTINUOUS
  2
*D2
 10
86.3747269837
 20
41.2463057245
 11
74.6247269837
 21
41.2463057245
 70
128
 13
62.8747269837
 23
69.0911109014
 14
86.3747269837
 24
68.9316305923
  0
DIMENSION
  8
0
 62
2
  6
CONTINUOUS
  2
*D3
 10
136.3747269837
 20
41.2463057245
 11
124.9724625066
 21
41.2463057245
 70
128
 13
111.3747269837
 23
69.0113707469
 14
136.3747269837
 24
68.9316305923
  0
DIMENSION
  8
0
 62
2
  6
CONTINUOUS
  2
*D4
 10
161.3747269837
 20
41.2463057245
 11
149.9724625066
 21
41.2463057245
 70
128
 13
136.3747269837
 23
68.9316305923
 14
161.3747269837
 24
68.9316305923
  0
DIMENSION
  8
0
 62
2
  6
CONTINUOUS
  2
*D5
 10
190.3747269837
 20
108.2463057245
 11
169.7952109941
 21
108.2463057245
 70
128
 13
182.3747269837
 23
68.7463057245
 14
190.3747269837
 24
68.7463057245
  0
DIMENSION
  8
0
 62
2
  6
CONTINUOUS
  2
*D6
 10
176.7007252551
 20
66.4963057245
 11
176.7007252551
 21
99.6463057245
 70
128
 13
184.6247269837
 23
70.9963057245
 14
184.6247269837
 24
66.4963057245
 50
270.0
  0
DIMENSION
  8
0
 62
2
  6
CONTINUOUS
  2
*D7
 10
201.0828168714
 20
65.4963057245
 11
201.0828168714
 21
99.6463057245
 70
128
 13
207.6247269837
 23
71.9963057245
 14
207.6247269837
 24
65.4963057245
 50
270.0
  0
DIMENSION
  8
0
 62
2
  6
CONTINUOUS
  2
*D8
 10
218.3747269837
 20
108.2463057245
 11
235.2613475542
 21
108.2463057245
 70
128
 13
204.3747269837
 23
68.7463057245
 14
218.3747269837
 24
68.7463057245
  0
DIMENSION
  8
0
 62
2
  6
CONTINUOUS
  2
*D9
 10
210.2634644079
 20
137.4549881575
 11
186.2634644079
 21
137.4549881575
 70
128
 13
206.2634644079
 23
170.9549881575
 14
210.2634644079
 24
170.9549881575
  0
DIMENSION
  8
0
 62
2
  6
CONTINUOUS
  2
*D10
 10
236.2634644079
 20
137.4549881575
 11
221.5348559377
 21
137.4549881575
 70
128
 13
230.2634644079
 23
170.9549881575
 14
236.2634644079
 24
170.9549881575
  0
DIMENSION
  8
0
 62
2
  6
CONTINUOUS
  2
*D11
 10
101.6545454798
 20
152.4549881575
 11
101.6545454798
 21
202.7049881575
 70
128
 13
85.6545454798
 23
252.9549881575
 14
85.1545454798
 24
152.4549881575
 50
270.0
  0
DIMENSION
  8
0
 62
2
  6
CONTINUOUS
  2
*D12
 10
68.3747269837
 20
60.6919064159
 11
35.4747269837
 21
60.6919064159
 70
128
 13
62.8747269837
 23
65.4963057245
 14
68.3747269837
 24
68.7463057245
  0
LINE
  8
0
 62
2
  6
CONTINUOUS
 10
6.0129118699
 20
22.0
 11
48.0129118699
 21
22.0
  0
LINE
  8
0
 62
2
  6
CONTINUOUS
 10
6.0129118699
 20
22.0
 11
6.0129118699
 21
6.0
  0
LINE
  8
0
 62
2
  6
CONTINUOUS
 10
6.0129118699
 20
6.0
 11
48.0129118699
 21
6.0
  0
LINE
  8
0
 62
2
  6
CONTINUOUS
 10
48.0129118699
 20
22.0
 11
48.0129118699
 21
6.0
  0
LINE
  8
0
 62
2
  6
CONTINUOUS
 10
48.0
 20
12.0
 11
63.0
 21
12.0
  0
LINE
  8
0
 62
2
  6
CONTINUOUS
 10
48.0
 20
12.0
 11
48.0
 21
6.0
  0
LINE
  8
0
 62
2
  6
CONTINUOUS
 10
48.0
 20
6.0
 11
63.0
 21
6.0
  0
LINE
  8
0
 62
2
  6
CONTINUOUS
 10
63.0
 20
12.0
 11
63.0
 21
6.0
  0
TEXT
  8
0
 62
7
  6
CONTINUOUS
 10
49.5
 20
7.5
  7
TEXTSTYLE_2
 40
3.0
  1
Ref.
 41
1.0
 72
1
 11
55.5
 21
7.5
  0
LINE
  8
0
 62
2
  6
CONTINUOUS
 10
63.0
 20
12.0
 11
113.0
 21
12.0
  0
LINE
  8
0
 62
2
  6
CONTINUOUS
 10
63.0
 20
12.0
 11
63.0
 21
6.0
  0
LINE
  8
0
 62
2
  6
CONTINUOUS
 10
63.0
 20
6.0
 11
113.0
 21
6.0
  0
LINE
  8
0
 62
2
  6
CONTINUOUS
 10
113.0
 20
12.0
 11
113.0
 21
6.0
  0
TEXT
  8
0
 62
2
  6
CONTINUOUS
 10
64.2
 20
7.5
  7
STANDARD
 40
3.0
  1
 T1-EN 25x100
 41
0.8
 72
0
  0
LINE
  8
0
 62
2
  6
CONTINUOUS
 10
6.0
 20
291.0
 11
413.0
 21
291.0
  0
LINE
  8
0
 62
2
  6
CONTINUOUS
 10
6.0
 20
291.0
 11
6.0
 21
6.0
  0
LINE
  8
0
 62
2
  6
CONTINUOUS
 10
6.0
 20
6.0
 11
413.0
 21
6.0
  0
LINE
  8
0
 62
2
  6
CONTINUOUS
 10
413.0
 20
291.0
 11
413.0
 21
6.0
  0
TEXT
  8
0
 62
2
  6
CONTINUOUS
 10
139.094095986
 20
32.4000851495
  7
STANDARD
 40
3.0
  1
BASE PERFORATION
 41
0.8
 72
0
  0
TEXT
  8
0
 62
2
  6
CONTINUOUS
 10
58.8832205618
 20
140.9549881575
  7
STANDARD
 40
3.0
  1
FRONT SECTION
 41
0.8
 72
0
  0
TEXT
  8
0
 62
2
  6
CONTINUOUS
 10
220.9325965231
 20
123.9549881575
  7
STANDARD
 40
3.0
  1
SIDE SECTION
 41
0.8
 72
0
  0
LINE
  8
0
 62
7
  6
CONTINUOUS
 10
28.9011261586
 20
11.1693255399
 11
28.8356453826
 21
11.2229007203
  0
LINE
  8
0
 62
7
  6
CONTINUOUS
 10
30.5440983553
 20
11.9610476492
 11
30.5798151422
 21
11.9312836601
  0
LINE
  8
0
 62
7
  6
CONTINUOUS
 10
28.6511086504
 20
15.9017998021
 11
28.6868254373
 21
15.8720358131
  0
LINE
  8
0
 62
7
  6
CONTINUOUS
 10
28.6868254373
 20
15.8720358131
 11
28.7165894264
 21
15.842271824
  0
LINE
  8
0
 62
7
  6
CONTINUOUS
 10
32.6811527705
 20
15.1457944798
 11
32.6454359837
 21
15.1815112666
  0
LINE
  8
0
 62
7
  6
CONTINUOUS
 10
28.8356453826
 20
11.2229007203
 11
28.7820702023
 21
11.2824286984
  0
LINE
  8
0
 62
7
  6
CONTINUOUS
 10
34.6991512295
 20
11.2229007203
 11
34.6455760492
 21
11.2824286984
  0
LINE
  8
0
 62
7
  6
CONTINUOUS
 10
39.5923510327
 20
11.2229007203
 11
39.5387758524
 21
11.2824286984
  0
LINE
  8
0
 62
7
  6
CONTINUOUS
 10
30.5143343662
 20
11.9967644361
 11
30.5440983553
 21
11.9610476492
  0
LINE
  8
0
 62
7
  6
CONTINUOUS
 10
36.3778402131
 20
11.9967644361
 11
36.4076042022
 21
11.9610476492
  0
LINE
  8
0
 62
7
  6
CONTINUOUS
 10
28.2641767925
 20
13.4313887093
 11
28.2879879838
 21
13.4016247202
  0
LINE
  8
0
 62
7
  6
CONTINUOUS
 10
34.3896057432
 20
15.9017998021
 11
34.4372281257
 21
15.842271824
  0
LINE
  8
0
 62
7
  6
CONTINUOUS
 10
26.4069038745
 20
13.1813712011
 11
26.3949982789
 21
13.1992295945
  0
LINE
  8
0
 62
7
  6
CONTINUOUS
 10
26.8593165084
 20
15.1815112666
 11
26.8474109127
 21
15.1993696601
  0
LINE
  8
0
 62
7
  6
CONTINUOUS
 10
28.7820702023
 20
11.2824286984
 11
28.7404006176
 21
11.3479094744
  0
LINE
  8
0
 62
7
  6
CONTINUOUS
 10
34.6455760492
 20
11.2824286984
 11
34.6039064645
 21
11.3479094744
  0
LINE
  8
0
 62
7
  6
CONTINUOUS
 10
28.7165894264
 20
15.842271824
 11
28.7463534154
 21
15.7946494415
  0
LINE
  8
0
 62
7
  6
CONTINUOUS
 10
28.2879879838
 20
13.4016247202
 11
28.3237047706
 21
13.3420967421
  0
LINE
  8
0
 62
7
  6
CONTINUOUS
 10
34.4372281257
 20
15.842271824
 11
34.4788977104
 21
15.7708382502
  0
LINE
  8
0
 62
7
  6
CONTINUOUS
 10
32.7049639618
 20
15.1041248951
 11
32.6811527705
 21
15.1457944798
  0
LINE
  8
0
 62
7
  6
CONTINUOUS
 10
28.7404006176
 20
11.3479094744
 11
28.7046838307
 21
11.4133902503
  0
LINE
  8
0
 62
7
  6
CONTINUOUS
 10
34.6039064645
 20
11.3479094744
 11
34.5681896776
 21
11.4133902503
  0
LINE
  8
0
 62
7
  6
CONTINUOUS
 10
26.4188094701
 20
13.1337488186
 11
26.4069038745
 21
13.1575600098
  0
LINE
  8
0
 62
7
  6
CONTINUOUS
 10
28.7463534154
 20
15.7946494415
 11
28.7701646067
 21
15.747027059
  0
LINE
  8
0
 62
7
  6
CONTINUOUS
 10
28.3237047706
 20
13.3420967421
 11
28.3415631641
 21
13.3004271574
  0
LINE
  8
0
 62
7
  6
CONTINUOUS
 10
28.7046838307
 20
11.4133902503
 11
28.6451558526
 21
11.5681629935
  0
LINE
  8
0
 62
7
  6
CONTINUOUS
 10
20.9898578637
 20
16.0625253431
 11
20.9779522681
 21
16.1041949278
  0
LINE
  8
0
 62
7
  6
CONTINUOUS
 10
0.0
 20
0.0
 11
0.0
 21
297.0
  0
LINE
  8
0
 62
7
  6
CONTINUOUS
 10
28.984465328
 20
11.1276559552
 11
28.9011261586
 21
11.1693255399
  0
LINE
  8
0
 62
7
  6
CONTINUOUS
 10
30.5798151422
 20
11.9312836601
 11
30.6214847269
 21
11.9074724689
  0
LINE
  8
0
 62
7
  6
CONTINUOUS
 10
28.6094390657
 20
15.9256109934
 11
28.6511086504
 21
15.9017998021
  0
LINE
  8
0
 62
7
  6
CONTINUOUS
 10
36.443320989
 20
11.9312836601
 11
36.4849905737
 21
11.9074724689
  0
LINE
  8
0
 62
7
  6
CONTINUOUS
 10
28.2046488144
 20
13.4671054962
 11
28.2641767925
 21
13.4313887093
  0
LINE
  8
0
 62
7
  6
CONTINUOUS
 10
32.6454359837
 20
15.1815112666
 11
32.5978136011
 21
15.2112752557
  0
LINE
  8
0
 62
7
  6
CONTINUOUS
 10
26.3949982789
 20
13.1992295945
 11
26.3771398854
 21
13.2111351902
  0
LINE
  8
0
 62
7
  6
CONTINUOUS
 10
28.567769481
 20
15.9553749825
 11
28.6094390657
 21
15.9256109934
  0
LINE
  8
0
 62
7
  6
CONTINUOUS
 10
34.7646320055
 20
11.1693255399
 11
34.6991512295
 21
11.2229007203
  0
LINE
  8
0
 62
7
  6
CONTINUOUS
 10
39.6578318086
 20
11.1693255399
 11
39.5923510327
 21
11.2229007203
  0
LINE
  8
0
 62
7
  6
CONTINUOUS
 10
36.4076042022
 20
11.9610476492
 11
36.443320989
 21
11.9312836601
  0
LINE
  8
0
 62
7
  6
CONTINUOUS
 10
41.312709601
 20
11.9550948514
 11
41.3543791857
 21
11.9193780645
  0
LINE
  8
0
 62
7
  6
CONTINUOUS
 10
43.4080944315
 20
15.1577000754
 11
43.360472049
 21
15.1993696601
  0
LINE
  8
0
 62
7
  6
CONTINUOUS
 10
34.330077765
 20
15.9553749825
 11
34.3896057432
 21
15.9017998021
  0
LINE
  8
0
 62
7
  6
CONTINUOUS
 10
45.0867834151
 20
15.9494221847
 11
45.1463113932
 21
15.8958470043
  0
LINE
  8
0
 62
7
  6
CONTINUOUS
 10
45.1463113932
 20
15.8958470043
 11
45.1879809779
 21
15.842271824
  0
LINE
  8
0
 62
7
  6
CONTINUOUS
 10
41.2769928141
 20
12.0027172339
 11
41.312709601
 21
11.9550948514
  0
LINE
  8
0
 62
7
  6
CONTINUOUS
 10
43.4438112184
 20
15.1100776929
 11
43.4080944315
 21
15.1577000754
  0
LINE
  8
0
 62
7
  6
CONTINUOUS
 10
39.5387758524
 20
11.2824286984
 11
39.455436683
 21
11.4133902503
  0
LINE
  8
0
 62
7
  6
CONTINUOUS
 10
34.5146144973
 20
15.6934518786
 11
34.5503312842
 21
15.6220183049
  0
LINE
  8
0
 62
7
  6
CONTINUOUS
 10
45.1879809779
 20
15.842271824
 11
45.2951313386
 21
15.6279711027
  0
LINE
  8
0
 62
7
  6
CONTINUOUS
 10
34.5681896776
 20
11.4133902503
 11
34.5324728907
 21
11.4907766219
  0
LINE
  8
0
 62
7
  6
CONTINUOUS
 10
34.4788977104
 20
15.7708382502
 11
34.5146144973
 21
15.6934518786
  0
LINE
  8
0
 62
7
  6
CONTINUOUS
 10
43.4676224096
 20
15.0565025125
 11
43.4438112184
 21
15.1100776929
  0
LINE
  8
0
 62
7
  6
CONTINUOUS
 10
32.7228223552
 20
15.0624553104
 11
32.7049639618
 21
15.1041248951
  0
LINE
  8
0
 62
7
  6
CONTINUOUS
 10
28.7701646067
 20
15.747027059
 11
28.793975798
 21
15.6874990808
  0
LINE
  8
0
 62
7
  6
CONTINUOUS
 10
39.455436683
 20
11.4133902503
 11
39.3959087048
 21
11.5681629935
  0
LINE
  8
0
 62
7
  6
CONTINUOUS
 10
28.793975798
 20
15.6874990808
 11
28.8118341914
 21
15.6339239005
  0
LINE
  8
0
 62
7
  6
CONTINUOUS
 10
41.2591344206
 20
12.0562924142
 11
41.2769928141
 21
12.0027172339
  0
LINE
  8
0
 62
7
  6
CONTINUOUS
 10
28.6451558526
 20
11.5681629935
 11
28.6213446613
 21
11.6455493651
  0
LINE
  8
0
 62
7
  6
CONTINUOUS
 10
34.5324728907
 20
11.4907766219
 11
34.4848505082
 21
11.6455493651
  0
LINE
  8
0
 62
7
  6
CONTINUOUS
 10
34.5503312842
 20
15.6220183049
 11
34.5741424754
 21
15.5446319333
  0
LINE
  8
0
 62
7
  6
CONTINUOUS
 10
23.638852891
 20
16.0625253431
 11
23.6269472953
 21
16.1041949278
  0
LINE
  8
0
 62
7
  6
CONTINUOUS
 10
28.3415631641
 20
13.3004271574
 11
28.3534687597
 21
13.2587575727
  0
LINE
  8
0
 62
7
  6
CONTINUOUS
 10
30.5024287706
 20
12.0384340208
 11
30.5143343662
 21
11.9967644361
  0
LINE
  8
0
 62
7
  6
CONTINUOUS
 10
36.3659346175
 20
12.0384340208
 11
36.3778402131
 21
11.9967644361
  0
LINE
  8
0
 62
7
  6
CONTINUOUS
 10
28.8118341914
 20
15.6339239005
 11
28.8296925848
 21
15.5684431245
  0
LINE
  8
0
 62
7
  6
CONTINUOUS
 10
21.0077162571
 20
15.9672805781
 11
20.9958106615
 21
16.0149029606
  0
LINE
  8
0
 62
7
  6
CONTINUOUS
 10
23.6567112844
 20
15.9672805781
 11
23.6448056888
 21
16.0149029606
  0
LINE
  8
0
 62
7
  6
CONTINUOUS
 10
26.4247622679
 20
13.1099376273
 11
26.4188094701
 21
13.1337488186
  0
LINE
  8
0
 62
7
  6
CONTINUOUS
 10
26.8831276996
 20
15.0862665016
 11
26.8593165084
 21
15.1815112666
  0
LINE
  8
0
 62
7
  6
CONTINUOUS
 10
28.6213446613
 20
11.6455493651
 11
28.6034862679
 21
11.7288885345
  0
LINE
  8
0
 62
7
  6
CONTINUOUS
 10
21.0255746506
 20
15.7827438459
 11
21.0196218528
 21
15.8244134306
  0
LINE
  8
0
 62
7
  6
CONTINUOUS
 10
22.0256446833
 20
11.3002870919
 11
22.0315974812
 21
11.2586175072
  0
LINE
  8
0
 62
7
  6
CONTINUOUS
 10
23.6745696778
 20
15.7827438459
 11
23.66861688
 21
15.8244134306
  0
LINE
  8
0
 62
7
  6
CONTINUOUS
 10
20.9958106615
 20
16.0149029606
 11
20.9898578637
 21
16.0625253431
  0
LINE
  8
0
 62
7
  6
CONTINUOUS
 10
21.0196218528
 20
15.8720358131
 11
21.0077162571
 21
15.9672805781
  0
LINE
  8
0
 62
7
  6
CONTINUOUS
 10
22.037550279
 20
11.1633727421
 11
22.0435030768
 21
11.1157503596
  0
LINE
  8
0
 62
7
  6
CONTINUOUS
 10
22.0315974812
 20
11.2586175072
 11
22.037550279
 21
11.2109951246
  0
LINE
  8
0
 62
7
  6
CONTINUOUS
 10
28.8415981805
 20
15.5029623486
 11
28.8475509783
 21
15.4374815726
  0
LINE
  8
0
 62
7
  6
CONTINUOUS
 10
28.6034862679
 20
11.7288885345
 11
28.5975334701
 21
11.8122277039
  0
LINE
  8
0
 62
7
  6
CONTINUOUS
 10
28.5975334701
 20
11.8122277039
 11
28.5915806723
 21
11.9015196711
  0
LINE
  8
0
 62
7
  6
CONTINUOUS
 10
10.2107311753
 20
10.9876449407
 11
10.2107311753
 21
15.3576449407
  0
LINE
  8
0
 62
7
  6
CONTINUOUS
 10
11.5407311753
 20
15.3576449407
 11
11.5407311753
 21
13.8376449407
  0
LINE
  8
0
 62
7
  6
CONTINUOUS
 10
11.5407311753
 20
10.9876449407
 11
11.5407311753
 21
12.5076449407
  0
LINE
  8
0
 62
7
  6
CONTINUOUS
 10
20.1683717654
 20
11.8419916929
 11
20.1683717654
 21
11.8777084798
  0
LINE
  8
0
 62
7
  6
CONTINUOUS
 10
21.0077162571
 20
15.5327263377
 11
21.0077162571
 21
15.5982071136
  0
LINE
  8
0
 62
7
  6
CONTINUOUS
 10
21.0196218528
 20
15.6458294961
 11
21.0196218528
 21
15.6696406874
  0
LINE
  8
0
 62
7
  6
CONTINUOUS
 10
21.0196218528
 20
15.8244134306
 11
21.0196218528
 21
15.8720358131
  0
LINE
  8
0
 62
7
  6
CONTINUOUS
 10
21.0255746506
 20
15.6934518786
 11
21.0255746506
 21
15.7827438459
  0
LINE
  8
0
 62
7
  6
CONTINUOUS
 10
29.079710093
 20
11.0919391684
 11
28.984465328
 21
11.1276559552
  0
LINE
  8
0
 62
7
  6
CONTINUOUS
 10
27.9070089237
 20
13.5861614525
 11
28.0498760712
 21
13.5325862721
  0
LINE
  8
0
 62
7
  6
CONTINUOUS
 10
34.9432159399
 20
11.0919391684
 11
34.8479711749
 21
11.1276559552
  0
LINE
  8
0
 62
7
  6
CONTINUOUS
 10
26.3533286942
 20
13.2230407858
 11
26.3235647051
 21
13.2349463814
  0
LINE
  8
0
 62
7
  6
CONTINUOUS
 10
28.40704394
 20
16.0208557584
 11
28.4665719182
 21
15.9970445672
  0
LINE
  8
0
 62
7
  6
CONTINUOUS
 10
28.0498760712
 20
13.5325862721
 11
28.1332152406
 21
13.4968694853
  0
LINE
  8
0
 62
7
  6
CONTINUOUS
 10
34.1574466284
 20
16.0387141519
 11
34.2526913935
 21
15.9970445672
  0
LINE
  8
0
 62
7
  6
CONTINUOUS
 10
41.3543791857
 20
11.9193780645
 11
41.407954366
 21
11.8955668733
  0
LINE
  8
0
 62
7
  6
CONTINUOUS
 10
43.360472049
 20
15.1993696601
 11
43.3068968687
 21
15.2231808513
  0
LINE
  8
0
 62
7
  6
CONTINUOUS
 10
39.7471237759
 20
11.1276559552
 11
39.6578318086
 21
11.1693255399
  0
LINE
  8
0
 62
7
  6
CONTINUOUS
 10
26.3771398854
 20
13.2111351902
 11
26.3533286942
 21
13.2230407858
  0
LINE
  8
0
 62
7
  6
CONTINUOUS
 10
28.1689320275
 20
13.4849638896
 11
28.2046488144
 21
13.4671054962
  0
LINE
  8
0
 62
7
  6
CONTINUOUS
 10
34.8479711749
 20
11.1276559552
 11
34.7646320055
 21
11.1693255399
  0
LINE
  8
0
 62
7
  6
CONTINUOUS
 10
26.8474109127
 20
15.1993696601
 11
26.775977339
 21
15.235086447
  0
LINE
  8
0
 62
7
  6
CONTINUOUS
 10
28.5201470985
 20
15.9791861737
 11
28.567769481
 21
15.9553749825
  0
LINE
  8
0
 62
7
  6
CONTINUOUS
 10
39.2768527485
 20
15.2112752557
 11
39.2530415573
 21
15.2231808513
  0
LINE
  8
0
 62
7
  6
CONTINUOUS
 10
34.2526913935
 20
15.9970445672
 11
34.330077765
 21
15.9553749825
  0
LINE
  8
0
 62
7
  6
CONTINUOUS
 10
45.0093970435
 20
15.9910917693
 11
45.0867834151
 21
15.9494221847
  0
LINE
  8
0
 62
7
  6
CONTINUOUS
 10
45.3189425298
 20
15.5446319333
 11
45.3427537211
 21
15.4672455617
  0
LINE
  8
0
 62
7
  6
CONTINUOUS
 10
45.2951313386
 20
15.6279711027
 11
45.3189425298
 21
15.5446319333
  0
LINE
  8
0
 62
7
  6
CONTINUOUS
 10
39.3959087048
 20
11.5681629935
 11
39.3780503114
 21
11.6455493651
  0
LINE
  8
0
 62
7
  6
CONTINUOUS
 10
34.4848505082
 20
11.6455493651
 11
34.4669921148
 21
11.7288885345
  0
LINE
  8
0
 62
7
  6
CONTINUOUS
 10
34.5741424754
 20
15.5446319333
 11
34.6098592623
 21
15.3779535945
  0
LINE
  8
0
 62
7
  6
CONTINUOUS
 10
39.3780503114
 20
11.6455493651
 11
39.3601919179
 21
11.7288885345
  0
LINE
  8
0
 62
7
  6
CONTINUOUS
 10
28.8296925848
 20
15.5684431245
 11
28.8415981805
 21
15.5029623486
  0
LINE
  8
0
 62
7
  6
CONTINUOUS
 10
23.6448056888
 20
16.0149029606
 11
23.638852891
 21
16.0625253431
  0
LINE
  8
0
 62
7
  6
CONTINUOUS
 10
23.66861688
 20
15.8720358131
 11
23.6567112844
 21
15.9672805781
  0
LINE
  8
0
 62
7
  6
CONTINUOUS
 10
28.3534687597
 20
13.2587575727
 11
28.3594215575
 21
13.2111351902
  0
LINE
  8
0
 62
7
  6
CONTINUOUS
 10
30.4964759728
 20
12.0920092011
 11
30.5024287706
 21
12.0384340208
  0
LINE
  8
0
 62
7
  6
CONTINUOUS
 10
32.7287751531
 20
15.00888013
 11
32.7228223552
 21
15.0624553104
  0
LINE
  8
0
 62
7
  6
CONTINUOUS
 10
34.4669921148
 20
11.7288885345
 11
34.461039317
 21
11.8122277039
  0
LINE
  8
0
 62
7
  6
CONTINUOUS
 10
34.6098592623
 20
15.3779535945
 11
34.6158120601
 21
15.2946144251
  0
LINE
  8
0
 62
7
  6
CONTINUOUS
 10
39.3601919179
 20
11.7288885345
 11
39.3542391201
 21
11.8122277039
  0
LINE
  8
0
 62
7
  6
CONTINUOUS
 10
34.461039317
 20
11.8122277039
 11
34.4550865191
 21
11.9015196711
  0
LINE
  8
0
 62
7
  6
CONTINUOUS
 10
34.6158120601
 20
15.2946144251
 11
34.6217648579
 21
15.2053224579
  0
LINE
  8
0
 62
7
  6
CONTINUOUS
 10
39.3542391201
 20
11.8122277039
 11
39.3482863223
 21
11.9015196711
  0
LINE
  8
0
 62
7
  6
CONTINUOUS
 10
22.0256446833
 20
11.4312486438
 11
22.0256446833
 21
11.3002870919
  0
LINE
  8
0
 62
7
  6
CONTINUOUS
 10
22.0315974812
 20
11.5383990044
 11
22.0315974812
 21
11.4788710263
  0
LINE
  8
0
 62
7
  6
CONTINUOUS
 10
22.037550279
 20
11.2109951246
 11
22.037550279
 21
11.1633727421
  0
LINE
  8
0
 62
7
  6
CONTINUOUS
 10
22.0435030768
 20
11.1157503596
 11
22.0435030768
 21
11.0264583924
  0
LINE
  8
0
 62
7
  6
CONTINUOUS
 10
22.8471307817
 20
11.8777084798
 11
22.8471307817
 21
11.9015196711
  0
LINE
  8
0
 62
7
  6
CONTINUOUS
 10
23.6567112844
 20
15.5327263377
 11
23.6567112844
 21
15.5982071136
  0
LINE
  8
0
 62
7
  6
CONTINUOUS
 10
23.66861688
 20
15.6458294961
 11
23.66861688
 21
15.6696406874
  0
LINE
  8
0
 62
7
  6
CONTINUOUS
 10
23.66861688
 20
15.8244134306
 11
23.66861688
 21
15.8720358131
  0
LINE
  8
0
 62
7
  6
CONTINUOUS
 10
23.6745696778
 20
15.6934518786
 11
23.6745696778
 21
15.7827438459
  0
LINE
  8
0
 62
7
  6
CONTINUOUS
 10
26.4069038745
 20
13.1575600098
 11
26.4069038745
 21
13.1813712011
  0
LINE
  8
0
 62
7
  6
CONTINUOUS
 10
26.4247622679
 20
13.0920792339
 11
26.4247622679
 21
13.1099376273
  0
LINE
  8
0
 62
7
  6
CONTINUOUS
 10
26.8831276996
 20
14.9612577475
 11
26.8831276996
 21
15.0862665016
  0
LINE
  8
0
 62
7
  6
CONTINUOUS
 10
28.3594215575
 20
13.2111351902
 11
28.3594215575
 21
13.1575600098
  0
LINE
  8
0
 62
7
  6
CONTINUOUS
 10
28.5915806723
 20
11.9015196711
 11
28.5915806723
 21
11.967000447
  0
LINE
  8
0
 62
7
  6
CONTINUOUS
 10
28.8415981805
 20
15.2946144251
 11
28.8415981805
 21
15.2529448404
  0
LINE
  8
0
 62
7
  6
CONTINUOUS
 10
28.8475509783
 20
15.4374815726
 11
28.8475509783
 21
15.330331212
  0
LINE
  8
0
 62
7
  6
CONTINUOUS
 10
32.7287751531
 20
14.9195881628
 11
32.7287751531
 21
15.00888013
  0
LINE
  8
0
 62
7
  6
CONTINUOUS
 10
34.4550865191
 20
11.9015196711
 11
34.4550865191
 21
11.967000447
  0
LINE
  8
0
 62
7
  6
CONTINUOUS
 10
34.461039317
 20
12.032481223
 11
34.461039317
 21
12.1039147968
  0
LINE
  8
0
 62
7
  6
CONTINUOUS
 10
34.6217648579
 20
15.2053224579
 11
34.6217648579
 21
15.1338888841
  0
LINE
  8
0
 62
7
  6
CONTINUOUS
 10
22.0494558746
 20
11.6693605563
 11
22.0435030768
 21
11.6038797804
  0
LINE
  8
0
 62
7
  6
CONTINUOUS
 10
27.8593865411
 20
13.5980670481
 11
27.9070089237
 21
13.5861614525
  0
LINE
  8
0
 62
7
  6
CONTINUOUS
 10
39.9554716993
 20
11.0621751793
 11
39.8423685409
 21
11.0919391684
  0
LINE
  8
0
 62
7
  6
CONTINUOUS
 10
27.543888257
 20
13.663547824
 11
27.609369033
 21
13.6456894306
  0
LINE
  8
0
 62
7
  6
CONTINUOUS
 10
29.1868604537
 20
11.0621751793
 11
29.079710093
 21
11.0919391684
  0
LINE
  8
0
 62
7
  6
CONTINUOUS
 10
35.0503663005
 20
11.0621751793
 11
34.9432159399
 21
11.0919391684
  0
LINE
  8
0
 62
7
  6
CONTINUOUS
 10
39.5387758524
 20
15.1577000754
 11
39.4971062677
 21
15.169605671
  0
LINE
  8
0
 62
7
  6
CONTINUOUS
 10
28.3475159619
 20
16.0387141519
 11
28.40704394
 21
16.0208557584
  0
LINE
  8
0
 62
7
  6
CONTINUOUS
 10
30.6214847269
 20
11.9074724689
 11
30.6750599072
 21
11.8896140755
  0
LINE
  8
0
 62
7
  6
CONTINUOUS
 10
28.1332152406
 20
13.4968694853
 11
28.1689320275
 21
13.4849638896
  0
LINE
  8
0
 62
7
  6
CONTINUOUS
 10
36.4849905737
 20
11.9074724689
 11
36.5385657541
 21
11.8896140755
  0
LINE
  8
0
 62
7
  6
CONTINUOUS
 10
28.4665719182
 20
15.9970445672
 11
28.5201470985
 21
15.9791861737
  0
LINE
  8
0
 62
7
  6
CONTINUOUS
 10
32.5978136011
 20
15.2112752557
 11
32.5442384208
 21
15.2291336491
  0
LINE
  8
0
 62
7
  6
CONTINUOUS
 10
39.8423685409
 20
11.0919391684
 11
39.7471237759
 21
11.1276559552
  0
LINE
  8
0
 62
7
  6
CONTINUOUS
 10
39.3661447157
 20
15.1874640644
 11
39.3363807267
 21
15.1993696601
  0
LINE
  8
0
 62
7
  6
CONTINUOUS
 10
44.9141522785
 20
16.032761354
 11
45.0093970435
 21
15.9910917693
  0
LINE
  8
0
 62
7
  6
CONTINUOUS
 10
45.3427537211
 20
15.4672455617
 11
45.3606121145
 21
15.3779535945
  0
LINE
  8
0
 62
7
  6
CONTINUOUS
 10
43.4795280053
 20
14.9910217366
 11
43.4676224096
 21
15.0565025125
  0
LINE
  8
0
 62
7
  6
CONTINUOUS
 10
45.3606121145
 20
15.3779535945
 11
45.3725177102
 21
15.2946144251
  0
LINE
  8
0
 62
7
  6
CONTINUOUS
 10
36.3599818196
 20
12.0920092011
 11
36.3659346175
 21
12.0384340208
  0
LINE
  8
0
 62
7
  6
CONTINUOUS
 10
45.3725177102
 20
15.2946144251
 11
45.378470508
 21
15.2053224579
  0
LINE
  8
0
 62
7
  6
CONTINUOUS
 10
39.3482863223
 20
11.9015196711
 11
39.3482863223
 21
11.967000447
  0
LINE
  8
0
 62
7
  6
CONTINUOUS
 10
39.3542391201
 20
12.032481223
 11
39.3542391201
 21
12.1039147968
  0
LINE
  8
0
 62
7
  6
CONTINUOUS
 10
41.2591344206
 20
12.1158203924
 11
41.2591344206
 21
12.0562924142
  0
LINE
  8
0
 62
7
  6
CONTINUOUS
 10
43.4795280053
 20
14.9195881628
 11
43.4795280053
 21
14.9910217366
  0
LINE
  8
0
 62
7
  6
CONTINUOUS
 10
45.378470508
 20
15.2053224579
 11
45.378470508
 21
15.1279360863
  0
LINE
  8
0
 62
7
  6
CONTINUOUS
 10
39.6340206174
 20
16.1041949278
 11
39.5685398414
 21
15.1517472776
  0
LINE
  8
0
 62
7
  6
CONTINUOUS
 10
28.6034862679
 20
12.1039147968
 11
28.6094390657
 21
12.1813011683
  0
LINE
  8
0
 62
7
  6
CONTINUOUS
 10
34.6039064645
 20
14.9076825672
 11
34.5979536667
 21
14.8302961956
  0
LINE
  8
0
 62
7
  6
CONTINUOUS
 10
34.6217648579
 20
15.1338888841
 11
34.6098592623
 21
14.979116141
  0
LINE
  8
0
 62
7
  6
CONTINUOUS
 10
34.4729449126
 20
12.1813011683
 11
34.4788977104
 21
12.2586875399
  0
LINE
  8
0
 62
7
  6
CONTINUOUS
 10
39.3661447157
 20
12.1813011683
 11
39.3720975136
 21
12.2586875399
  0
LINE
  8
0
 62
7
  6
CONTINUOUS
 10
28.5975334701
 20
12.032481223
 11
28.6034862679
 21
12.1039147968
  0
LINE
  8
0
 62
7
  6
CONTINUOUS
 10
34.6098592623
 20
14.979116141
 11
34.6039064645
 21
14.9076825672
  0
LINE
  8
0
 62
7
  6
CONTINUOUS
 10
28.5915806723
 20
11.967000447
 11
28.5975334701
 21
12.032481223
  0
LINE
  8
0
 62
7
  6
CONTINUOUS
 10
34.4550865191
 20
11.967000447
 11
34.461039317
 21
12.032481223
  0
LINE
  8
0
 62
7
  6
CONTINUOUS
 10
26.4069038745
 20
12.9432592885
 11
26.4247622679
 21
13.0920792339
  0
LINE
  8
0
 62
7
  6
CONTINUOUS
 10
22.0315974812
 20
11.4788710263
 11
22.0256446833
 21
11.4312486438
  0
LINE
  8
0
 62
7
  6
CONTINUOUS
 10
28.8177869892
 20
15.1338888841
 11
28.8118341914
 21
15.0922192994
  0
LINE
  8
0
 62
7
  6
CONTINUOUS
 10
28.8415981805
 20
15.2529448404
 11
28.8356453826
 21
15.2112752557
  0
LINE
  8
0
 62
7
  6
CONTINUOUS
 10
20.1445605741
 20
11.7348413323
 11
20.1505133719
 21
11.7705581192
  0
LINE
  8
0
 62
7
  6
CONTINUOUS
 10
20.1624189675
 20
11.8062749061
 11
20.1683717654
 21
11.8419916929
  0
LINE
  8
0
 62
7
  6
CONTINUOUS
 10
20.9958106615
 20
15.4731983595
 11
21.0017634593
 21
15.5089151464
  0
LINE
  8
0
 62
7
  6
CONTINUOUS
 10
22.0732670659
 20
11.8062749061
 11
22.0613614702
 21
11.7348413323
  0
LINE
  8
0
 62
7
  6
CONTINUOUS
 10
22.6685468473
 20
11.3895790591
 11
22.6744996451
 21
11.425295846
  0
LINE
  8
0
 62
7
  6
CONTINUOUS
 10
23.638852891
 20
15.4374815726
 11
23.6507584866
 21
15.5089151464
  0
LINE
  8
0
 62
7
  6
CONTINUOUS
 10
22.0613614702
 20
11.7348413323
 11
22.0494558746
 21
11.6693605563
  0
LINE
  8
0
 62
7
  6
CONTINUOUS
 10
22.0435030768
 20
11.6038797804
 11
22.0315974812
 21
11.5383990044
  0
LINE
  8
0
 62
7
  6
CONTINUOUS
 10
35.1753750546
 20
11.0443167859
 11
35.0503663005
 21
11.0621751793
  0
LINE
  8
0
 62
7
  6
CONTINUOUS
 10
26.2521311313
 20
13.2468519771
 11
26.2104615466
 21
13.2528047749
  0
LINE
  8
0
 62
7
  6
CONTINUOUS
 10
29.30591641
 20
11.0443167859
 11
29.1868604537
 21
11.0621751793
  0
LINE
  8
0
 62
7
  6
CONTINUOUS
 10
40.0745276556
 20
11.0443167859
 11
39.9554716993
 21
11.0621751793
  0
LINE
  8
0
 62
7
  6
CONTINUOUS
 10
26.3235647051
 20
13.2349463814
 11
26.2521311313
 21
13.2468519771
  0
LINE
  8
0
 62
7
  6
CONTINUOUS
 10
27.609369033
 20
13.6456894306
 11
27.6808026067
 21
13.633783835
  0
LINE
  8
0
 62
7
  6
CONTINUOUS
 10
27.4010211095
 20
13.6814062175
 11
27.4724546832
 21
13.6695006219
  0
LINE
  8
0
 62
7
  6
CONTINUOUS
 10
41.407954366
 20
11.8955668733
 11
41.4793879397
 21
11.8836612776
  0
LINE
  8
0
 62
7
  6
CONTINUOUS
 10
26.775977339
 20
15.235086447
 11
26.7402605521
 21
15.2410392448
  0
LINE
  8
0
 62
7
  6
CONTINUOUS
 10
28.1451208362
 20
16.0744309387
 11
28.21655441
 21
16.0625253431
  0
LINE
  8
0
 62
7
  6
CONTINUOUS
 10
39.455436683
 20
15.1755584688
 11
39.4197198961
 21
15.1815112666
  0
LINE
  8
0
 62
7
  6
CONTINUOUS
 10
28.21655441
 20
16.0625253431
 11
28.3475159619
 21
16.0387141519
  0
LINE
  8
0
 62
7
  6
CONTINUOUS
 10
33.9193347159
 20
16.0863365344
 11
34.04434347
 21
16.0625253431
  0
LINE
  8
0
 62
7
  6
CONTINUOUS
 10
44.6760403659
 20
16.0863365344
 11
44.80104912
 21
16.0625253431
  0
LINE
  8
0
 62
7
  6
CONTINUOUS
 10
27.6808026067
 20
13.633783835
 11
27.8593865411
 21
13.5980670481
  0
LINE
  8
0
 62
7
  6
CONTINUOUS
 10
32.5442384208
 20
15.2291336491
 11
32.4847104427
 21
15.2410392448
  0
LINE
  8
0
 62
7
  6
CONTINUOUS
 10
39.3959087048
 20
15.1815112666
 11
39.3661447157
 21
15.1874640644
  0
LINE
  8
0
 62
7
  6
CONTINUOUS
 10
39.5685398414
 20
15.1517472776
 11
39.5387758524
 21
15.1577000754
  0
LINE
  8
0
 62
7
  6
CONTINUOUS
 10
39.3363807267
 20
15.1993696601
 11
39.2768527485
 21
15.2112752557
  0
LINE
  8
0
 62
7
  6
CONTINUOUS
 10
34.04434347
 20
16.0625253431
 11
34.1574466284
 21
16.0387141519
  0
LINE
  8
0
 62
7
  6
CONTINUOUS
 10
39.2530415573
 20
15.2231808513
 11
39.229230366
 21
15.2291336491
  0
LINE
  8
0
 62
7
  6
CONTINUOUS
 10
44.80104912
 20
16.0625253431
 11
44.9141522785
 21
16.032761354
  0
LINE
  8
0
 62
7
  6
CONTINUOUS
 10
43.3068968687
 20
15.2231808513
 11
43.2414160927
 21
15.2410392448
  0
LINE
  8
0
 62
7
  6
CONTINUOUS
 10
45.378470508
 20
15.1279360863
 11
45.3665649123
 21
14.9731633431
  0
LINE
  8
0
 62
7
  6
CONTINUOUS
 10
41.2650872184
 20
12.1872539662
 11
41.2591344206
 21
12.1158203924
  0
LINE
  8
0
 62
7
  6
CONTINUOUS
 10
39.3482863223
 20
11.967000447
 11
39.3542391201
 21
12.032481223
  0
LINE
  8
0
 62
7
  6
CONTINUOUS
 10
28.6094390657
 20
12.1813011683
 11
28.633250257
 21
12.3360739115
  0
LINE
  8
0
 62
7
  6
CONTINUOUS
 10
34.5979536667
 20
14.8302961956
 11
34.586048071
 21
14.752909824
  0
LINE
  8
0
 62
7
  6
CONTINUOUS
 10
34.4788977104
 20
12.2586875399
 11
34.490803306
 21
12.3360739115
  0
LINE
  8
0
 62
7
  6
CONTINUOUS
 10
34.461039317
 20
12.1039147968
 11
34.4729449126
 21
12.1813011683
  0
LINE
  8
0
 62
7
  6
CONTINUOUS
 10
39.3720975136
 20
12.2586875399
 11
39.3959087048
 21
12.4134602831
  0
LINE
  8
0
 62
7
  6
CONTINUOUS
 10
39.3542391201
 20
12.1039147968
 11
39.3661447157
 21
12.1813011683
  0
LINE
  8
0
 62
7
  6
CONTINUOUS
 10
28.8475509783
 20
15.330331212
 11
28.8415981805
 21
15.2946144251
  0
LINE
  8
0
 62
7
  6
CONTINUOUS
 10
28.8356453826
 20
15.2112752557
 11
28.8296925848
 21
15.1755584688
  0
LINE
  8
0
 62
7
  6
CONTINUOUS
 10
34.5681896776
 20
14.6755234524
 11
34.556284082
 21
14.6040898787
  0
LINE
  8
0
 62
7
  6
CONTINUOUS
 10
30.5143343662
 20
12.1872539662
 11
30.4964759728
 21
12.0920092011
  0
LINE
  8
0
 62
7
  6
CONTINUOUS
 10
28.7999285958
 20
15.0565025125
 11
28.6868254373
 21
14.4850339224
  0
LINE
  8
0
 62
7
  6
CONTINUOUS
 10
28.121309645
 20
12.0622452121
 11
28.0974984537
 21
11.9431892558
  0
LINE
  8
0
 62
7
  6
CONTINUOUS
 10
28.3594215575
 20
13.1575600098
 11
28.311799175
 21
12.9194480973
  0
LINE
  8
0
 62
7
  6
CONTINUOUS
 10
26.2461783335
 20
12.1634427749
 11
26.4069038745
 21
12.9432592885
  0
LINE
  8
0
 62
7
  6
CONTINUOUS
 10
28.6511086504
 20
12.4134602831
 11
28.6689670439
 21
12.4967994525
  0
LINE
  8
0
 62
7
  6
CONTINUOUS
 10
28.6868254373
 20
12.5146578459
 11
29.1392380712
 21
14.6040898787
  0
LINE
  8
0
 62
7
  6
CONTINUOUS
 10
22.8471307817
 20
11.9015196711
 11
23.5793249128
 21
15.2291336491
  0
LINE
  8
0
 62
7
  6
CONTINUOUS
 10
20.9600938746
 20
15.3422368076
 11
20.9719994703
 21
15.3958119879
  0
LINE
  8
0
 62
7
  6
CONTINUOUS
 10
23.5971833063
 20
15.2886616273
 11
23.6090889019
 21
15.3422368076
  0
LINE
  8
0
 62
7
  6
CONTINUOUS
 10
28.311799175
 20
12.9194480973
 11
28.121309645
 21
12.0622452121
  0
LINE
  8
0
 62
7
  6
CONTINUOUS
 10
20.1683717654
 20
11.8777084798
 11
20.9243770877
 21
15.2291336491
  0
LINE
  8
0
 62
7
  6
CONTINUOUS
 10
31.1334253389
 20
14.9195881628
 11
30.5143343662
 21
12.1872539662
  0
LINE
  8
0
 62
7
  6
CONTINUOUS
 10
22.8530835795
 20
15.2291336491
 11
22.0911254593
 21
11.8777084798
  0
LINE
  8
0
 62
7
  6
CONTINUOUS
 10
25.0556187707
 20
13.2528047749
 11
24.7401204866
 21
11.8777084798
  0
LINE
  8
0
 62
7
  6
CONTINUOUS
 10
28.633250257
 20
12.3360739115
 11
28.6511086504
 21
12.4134602831
  0
LINE
  8
0
 62
7
  6
CONTINUOUS
 10
26.7402605521
 20
14.3659779661
 11
26.8831276996
 21
14.9612577475
  0
LINE
  8
0
 62
7
  6
CONTINUOUS
 10
21.0196218528
 20
15.6696406874
 11
21.0255746506
 21
15.6934518786
  0
LINE
  8
0
 62
7
  6
CONTINUOUS
 10
21.0077162571
 20
15.5982071136
 11
21.0196218528
 21
15.6458294961
  0
LINE
  8
0
 62
7
  6
CONTINUOUS
 10
21.0017634593
 20
15.5089151464
 11
21.0077162571
 21
15.5327263377
  0
LINE
  8
0
 62
7
  6
CONTINUOUS
 10
22.8709419729
 20
15.3005672229
 11
22.8530835795
 21
15.2291336491
  0
LINE
  8
0
 62
7
  6
CONTINUOUS
 10
22.0911254593
 20
11.8777084798
 11
22.0732670659
 21
11.8062749061
  0
LINE
  8
0
 62
7
  6
CONTINUOUS
 10
23.66861688
 20
15.6696406874
 11
23.6745696778
 21
15.6934518786
  0
LINE
  8
0
 62
7
  6
CONTINUOUS
 10
23.6567112844
 20
15.5982071136
 11
23.66861688
 21
15.6458294961
  0
LINE
  8
0
 62
7
  6
CONTINUOUS
 10
23.6507584866
 20
15.5089151464
 11
23.6567112844
 21
15.5327263377
  0
LINE
  8
0
 62
7
  6
CONTINUOUS
 10
25.5318425958
 20
15.2469920426
 11
25.2461083008
 21
14.1100076601
  0
LINE
  8
0
 62
7
  6
CONTINUOUS
 10
22.805461197
 20
11.7407941301
 11
22.8233195904
 21
11.8062749061
  0
LINE
  8
0
 62
7
  6
CONTINUOUS
 10
20.9719994703
 20
15.3958119879
 11
20.9839050659
 21
15.4374815726
  0
LINE
  8
0
 62
7
  6
CONTINUOUS
 10
20.0016934266
 20
11.3360038787
 11
20.0135990222
 21
11.3776734634
  0
LINE
  8
0
 62
7
  6
CONTINUOUS
 10
0.0
 20
0.0
 11
420.0
 21
0.0
  0
LINE
  8
0
 62
7
  6
CONTINUOUS
 10
29.5856979072
 20
11.0264583924
 11
29.4428307597
 21
11.0324111902
  0
LINE
  8
0
 62
7
  6
CONTINUOUS
 10
40.3483563551
 20
11.0264583924
 11
40.2114420053
 21
11.0324111902
  0
LINE
  8
0
 62
7
  6
CONTINUOUS
 10
27.8236697543
 20
16.1041949278
 11
27.9903480931
 21
16.0922893322
  0
LINE
  8
0
 62
7
  6
CONTINUOUS
 10
41.4793879397
 20
11.8836612776
 11
41.5567743113
 21
11.8777084798
  0
LINE
  8
0
 62
7
  6
CONTINUOUS
 10
27.9903480931
 20
16.0922893322
 11
28.0677344646
 21
16.0863365344
  0
LINE
  8
0
 62
7
  6
CONTINUOUS
 10
43.2414160927
 20
15.2410392448
 11
43.1640297211
 21
15.2469920426
  0
LINE
  8
0
 62
7
  6
CONTINUOUS
 10
36.5980937322
 20
11.8836612776
 11
36.669527306
 21
11.8777084798
  0
LINE
  8
0
 62
7
  6
CONTINUOUS
 10
27.4724546832
 20
13.6695006219
 11
27.543888257
 21
13.663547824
  0
LINE
  8
0
 62
7
  6
CONTINUOUS
 10
32.4847104427
 20
15.2410392448
 11
32.4132768689
 21
15.2469920426
  0
LINE
  8
0
 62
7
  6
CONTINUOUS
 10
44.5331732184
 20
16.09824213
 11
44.6760403659
 21
16.0863365344
  0
LINE
  8
0
 62
7
  6
CONTINUOUS
 10
29.4428307597
 20
11.0324111902
 11
29.30591641
 21
11.0443167859
  0
LINE
  8
0
 62
7
  6
CONTINUOUS
 10
40.2114420053
 20
11.0324111902
 11
40.0745276556
 21
11.0443167859
  0
LINE
  8
0
 62
7
  6
CONTINUOUS
 10
33.7824203661
 20
16.09824213
 11
33.9193347159
 21
16.0863365344
  0
LINE
  8
0
 62
7
  6
CONTINUOUS
 10
35.3063366066
 20
11.0324111902
 11
35.1753750546
 21
11.0443167859
  0
LINE
  8
0
 62
7
  6
CONTINUOUS
 10
30.7345878853
 20
11.8836612776
 11
30.8000686613
 21
11.8777084798
  0
LINE
  8
0
 62
7
  6
CONTINUOUS
 10
30.6750599072
 20
11.8896140755
 11
30.7345878853
 21
11.8836612776
  0
LINE
  8
0
 62
7
  6
CONTINUOUS
 10
36.5385657541
 20
11.8896140755
 11
36.5980937322
 21
11.8836612776
  0
LINE
  8
0
 62
7
  6
CONTINUOUS
 10
39.0030240491
 20
15.2410392448
 11
38.943496071
 21
15.2469920426
  0
LINE
  8
0
 62
7
  6
CONTINUOUS
 10
39.0982688141
 20
15.235086447
 11
39.0506464316
 21
15.2410392448
  0
LINE
  8
0
 62
7
  6
CONTINUOUS
 10
26.7045437652
 20
15.2410392448
 11
26.6628741805
 21
15.2469920426
  0
LINE
  8
0
 62
7
  6
CONTINUOUS
 10
39.4971062677
 20
15.169605671
 11
39.455436683
 21
15.1755584688
  0
LINE
  8
0
 62
7
  6
CONTINUOUS
 10
39.1399383988
 20
15.2291336491
 11
39.0982688141
 21
15.235086447
  0
LINE
  8
0
 62
7
  6
CONTINUOUS
 10
28.0677344646
 20
16.0863365344
 11
28.1451208362
 21
16.0744309387
  0
LINE
  8
0
 62
7
  6
CONTINUOUS
 10
45.3665649123
 20
14.9731633431
 11
45.3308481255
 21
14.7410042284
  0
LINE
  8
0
 62
7
  6
CONTINUOUS
 10
45.3308481255
 20
14.7410042284
 11
45.3189425298
 21
14.6695706546
  0
LINE
  8
0
 62
7
  6
CONTINUOUS
 10
45.3189425298
 20
14.6695706546
 11
45.3070369342
 21
14.6040898787
  0
LINE
  8
0
 62
7
  6
CONTINUOUS
 10
44.8308131091
 20
12.4967994525
 11
44.8129547156
 21
12.4075074853
  0
LINE
  8
0
 62
7
  6
CONTINUOUS
 10
34.5086616995
 20
12.4134602831
 11
34.5265200929
 21
12.4967994525
  0
LINE
  8
0
 62
7
  6
CONTINUOUS
 10
39.3959087048
 20
12.4134602831
 11
39.4137670983
 21
12.4967994525
  0
LINE
  8
0
 62
7
  6
CONTINUOUS
 10
36.9969311857
 20
14.9195881628
 11
36.3837930109
 21
12.1872539662
  0
LINE
  8
0
 62
7
  6
CONTINUOUS
 10
34.556284082
 20
14.6040898787
 11
34.0800602569
 21
12.4967994525
  0
LINE
  8
0
 62
7
  6
CONTINUOUS
 10
34.5265200929
 20
12.4967994525
 11
35.002743918
 21
14.6040898787
  0
LINE
  8
0
 62
7
  6
CONTINUOUS
 10
45.3070369342
 20
14.6040898787
 11
44.8308131091
 21
12.4967994525
  0
LINE
  8
0
 62
7
  6
CONTINUOUS
 10
41.8841781911
 20
14.9195881628
 11
41.2650872184
 21
12.1872539662
  0
LINE
  8
0
 62
7
  6
CONTINUOUS
 10
39.4137670983
 20
12.4967994525
 11
39.8959437212
 21
14.6040898787
  0
LINE
  8
0
 62
7
  6
CONTINUOUS
 10
34.586048071
 20
14.752909824
 11
34.5681896776
 21
14.6755234524
  0
LINE
  8
0
 62
7
  6
CONTINUOUS
 10
34.490803306
 20
12.3360739115
 11
34.5086616995
 21
12.4134602831
  0
LINE
  8
0
 62
7
  6
CONTINUOUS
 10
42.8366258414
 20
12.1872539662
 11
43.4795280053
 21
14.9195881628
  0
LINE
  8
0
 62
7
  6
CONTINUOUS
 10
32.0799201913
 20
12.1872539662
 11
32.7287751531
 21
14.9195881628
  0
LINE
  8
0
 62
7
  6
CONTINUOUS
 10
29.1392380712
 20
14.6040898787
 11
29.1868604537
 21
14.7945794087
  0
LINE
  8
0
 62
7
  6
CONTINUOUS
 10
34.0800602569
 20
12.4967994525
 11
34.0324378743
 21
12.3063099224
  0
LINE
  8
0
 62
7
  6
CONTINUOUS
 10
35.002743918
 20
14.6040898787
 11
35.0503663005
 21
14.7945794087
  0
LINE
  8
0
 62
7
  6
CONTINUOUS
 10
36.3837930109
 20
12.1872539662
 11
36.3599818196
 21
12.0920092011
  0
LINE
  8
0
 62
7
  6
CONTINUOUS
 10
39.8959437212
 20
14.6040898787
 11
39.9435661037
 21
14.7945794087
  0
LINE
  8
0
 62
7
  6
CONTINUOUS
 10
29.1868604537
 20
14.7945794087
 11
29.2106716449
 21
14.8838713759
  0
LINE
  8
0
 62
7
  6
CONTINUOUS
 10
23.6269472953
 20
15.3958119879
 11
23.638852891
 21
15.4374815726
  0
LINE
  8
0
 62
7
  6
CONTINUOUS
 10
22.644735656
 20
11.3121926875
 11
22.6566412516
 21
11.3538622722
  0
LINE
  8
0
 62
7
  6
CONTINUOUS
 10
26.2045087488
 20
12.0384340208
 11
26.2164143445
 21
12.0801036055
  0
LINE
  8
0
 62
7
  6
CONTINUOUS
 10
26.2342727379
 20
12.1217731902
 11
26.2461783335
 21
12.1634427749
  0
LINE
  8
0
 62
7
  6
CONTINUOUS
 10
28.8296925848
 20
15.1755584688
 11
28.8177869892
 21
15.1338888841
  0
LINE
  8
0
 62
7
  6
CONTINUOUS
 10
28.6868254373
 20
14.4850339224
 11
28.6570614482
 21
14.3838363595
  0
LINE
  8
0
 62
7
  6
CONTINUOUS
 10
20.9243770877
 20
15.2291336491
 11
20.9422354812
 21
15.2886616273
  0
LINE
  8
0
 62
7
  6
CONTINUOUS
 10
22.9602339402
 20
15.5624903267
 11
22.9423755467
 21
15.5029623486
  0
LINE
  8
0
 62
7
  6
CONTINUOUS
 10
23.5793249128
 20
15.2291336491
 11
23.5971833063
 21
15.2886616273
  0
LINE
  8
0
 62
7
  6
CONTINUOUS
 10
28.0974984537
 20
11.9431892558
 11
28.0617816668
 21
11.8300860973
  0
LINE
  8
0
 62
7
  6
CONTINUOUS
 10
20.9839050659
 20
15.4374815726
 11
20.9958106615
 21
15.4731983595
  0
LINE
  8
0
 62
7
  6
CONTINUOUS
 10
20.9422354812
 20
15.2886616273
 11
20.9600938746
 21
15.3422368076
  0
LINE
  8
0
 62
7
  6
CONTINUOUS
 10
19.9719294375
 20
11.264570305
 11
19.9838350331
 21
11.3002870919
  0
LINE
  8
0
 62
7
  6
CONTINUOUS
 10
20.1505133719
 20
11.7705581192
 11
20.1624189675
 21
11.8062749061
  0
LINE
  8
0
 62
7
  6
CONTINUOUS
 10
20.0493158091
 20
11.4491070372
 11
20.1445605741
 21
11.7348413323
  0
LINE
  8
0
 62
7
  6
CONTINUOUS
 10
22.9185643555
 20
15.4374815726
 11
22.8947531642
 21
15.3660479989
  0
LINE
  8
0
 62
7
  6
CONTINUOUS
 10
23.6090889019
 20
15.3422368076
 11
23.6269472953
 21
15.3958119879
  0
LINE
  8
0
 62
7
  6
CONTINUOUS
 10
22.6149716669
 20
11.2407591137
 11
22.6268772626
 21
11.2764759006
  0
LINE
  8
0
 62
7
  6
CONTINUOUS
 10
22.6566412516
 20
11.3538622722
 11
22.6685468473
 21
11.3895790591
  0
LINE
  8
0
 62
7
  6
CONTINUOUS
 10
22.7161692298
 20
11.5086350153
 11
22.7340276232
 21
11.5622101957
  0
LINE
  8
0
 62
7
  6
CONTINUOUS
 10
22.8233195904
 20
11.8062749061
 11
22.8471307817
 21
11.8777084798
  0
LINE
  8
0
 62
7
  6
CONTINUOUS
 10
26.7045437652
 20
14.2647804033
 11
26.7164493608
 21
14.3004971902
  0
LINE
  8
0
 62
7
  6
CONTINUOUS
 10
26.7283549565
 20
14.3302611792
 11
26.7402605521
 21
14.3659779661
  0
LINE
  8
0
 62
7
  6
CONTINUOUS
 10
22.9423755467
 20
15.5029623486
 11
22.9185643555
 21
15.4374815726
  0
LINE
  8
0
 62
7
  6
CONTINUOUS
 10
22.8947531642
 20
15.3660479989
 11
22.8709419729
 21
15.3005672229
  0
LINE
  8
0
 62
7
  6
CONTINUOUS
 10
43.2830856774
 20
11.0264583924
 11
40.3483563551
 21
11.0264583924
  0
LINE
  8
0
 62
7
  6
CONTINUOUS
 10
38.5446586174
 20
11.0264583924
 11
35.4551565519
 21
11.0264583924
  0
LINE
  8
0
 62
7
  6
CONTINUOUS
 10
32.538285623
 20
11.0264583924
 11
29.5856979072
 21
11.0264583924
  0
LINE
  8
0
 62
7
  6
CONTINUOUS
 10
26.6628741805
 20
11.0264583924
 11
22.4899629128
 21
11.0264583924
  0
LINE
  8
0
 62
7
  6
CONTINUOUS
 10
22.0732670659
 20
11.0264583924
 11
19.8112038965
 21
11.0264583924
  0
LINE
  8
0
 62
7
  6
CONTINUOUS
 10
24.7401204866
 20
11.8777084798
 11
25.8890104647
 21
11.8777084798
  0
LINE
  8
0
 62
7
  6
CONTINUOUS
 10
30.8000686613
 20
11.8777084798
 11
31.6275075575
 21
11.8777084798
  0
LINE
  8
0
 62
7
  6
CONTINUOUS
 10
36.669527306
 20
11.8777084798
 11
37.88389806
 21
11.8777084798
  0
LINE
  8
0
 62
7
  6
CONTINUOUS
 10
41.5567743113
 20
11.8777084798
 11
42.3842132075
 21
11.8777084798
  0
LINE
  8
0
 62
7
  6
CONTINUOUS
 10
25.9366328472
 20
11.8836612776
 11
25.9723496341
 21
11.8836612776
  0
LINE
  8
0
 62
7
  6
CONTINUOUS
 10
38.0089068141
 20
11.8836612776
 11
38.1160571748
 21
11.8836612776
  0
LINE
  8
0
 62
7
  6
CONTINUOUS
 10
38.300593907
 20
11.8955668733
 11
38.3720274808
 21
11.8955668733
  0
LINE
  8
0
 62
7
  6
CONTINUOUS
 10
38.4256026611
 20
11.9015196711
 11
38.5029890327
 21
11.9015196711
  0
LINE
  8
0
 62
7
  6
CONTINUOUS
 10
38.6875257649
 20
11.9431892558
 11
38.7053841584
 21
11.9431892558
  0
LINE
  8
0
 62
7
  6
CONTINUOUS
 10
11.5407311753
 20
12.5076449407
 11
13.0607311753
 21
12.5076449407
  0
LINE
  8
0
 62
7
  6
CONTINUOUS
 10
26.2104615466
 20
13.2528047749
 11
25.0556187707
 21
13.2528047749
  0
LINE
  8
0
 62
7
  6
CONTINUOUS
 10
11.5407311753
 20
13.8376449407
 11
13.0607311753
 21
13.8376449407
  0
LINE
  8
0
 62
7
  6
CONTINUOUS
 10
25.2461083008
 20
14.1100076601
 11
26.4009510767
 21
14.1100076601
  0
LINE
  8
0
 62
7
  6
CONTINUOUS
 10
26.4426206614
 20
14.1159604579
 11
26.4783374483
 21
14.1159604579
  0
LINE
  8
0
 62
7
  6
CONTINUOUS
 10
39.4197198961
 20
15.1815112666
 11
39.3959087048
 21
15.1815112666
  0
LINE
  8
0
 62
7
  6
CONTINUOUS
 10
39.229230366
 20
15.2291336491
 11
39.1399383988
 21
15.2291336491
  0
LINE
  8
0
 62
7
  6
CONTINUOUS
 10
39.0506464316
 20
15.2410392448
 11
39.0030240491
 21
15.2410392448
  0
LINE
  8
0
 62
7
  6
CONTINUOUS
 10
26.7402605521
 20
15.2410392448
 11
26.7045437652
 21
15.2410392448
  0
LINE
  8
0
 62
7
  6
CONTINUOUS
 10
43.1640297211
 20
15.2469920426
 11
42.336590825
 21
15.2469920426
  0
LINE
  8
0
 62
7
  6
CONTINUOUS
 10
38.943496071
 20
15.2469920426
 11
37.4493438196
 21
15.2469920426
  0
LINE
  8
0
 62
7
  6
CONTINUOUS
 10
26.6628741805
 20
15.2469920426
 11
25.5318425958
 21
15.2469920426
  0
LINE
  8
0
 62
7
  6
CONTINUOUS
 10
31.5798851749
 20
15.2469920426
 11
32.4132768689
 21
15.2469920426
  0
LINE
  8
0
 62
7
  6
CONTINUOUS
 10
20.9779522681
 20
16.1041949278
 11
23.2102514483
 21
16.1041949278
  0
LINE
  8
0
 62
7
  6
CONTINUOUS
 10
23.6269472953
 20
16.1041949278
 11
27.8236697543
 21
16.1041949278
  0
LINE
  8
0
 62
7
  6
CONTINUOUS
 10
30.6750599072
 20
16.1041949278
 11
33.627647623
 21
16.1041949278
  0
LINE
  8
0
 62
7
  6
CONTINUOUS
 10
36.5385657541
 20
16.1041949278
 11
39.6340206174
 21
16.1041949278
  0
LINE
  8
0
 62
7
  6
CONTINUOUS
 10
41.4258127594
 20
16.1041949278
 11
44.3784004752
 21
16.1041949278
  0
LINE
  8
0
 62
7
  6
CONTINUOUS
 10
33.627647623
 20
16.1041949278
 11
33.7824203661
 21
16.09824213
  0
LINE
  8
0
 62
7
  6
CONTINUOUS
 10
44.3784004752
 20
16.1041949278
 11
44.5331732184
 21
16.09824213
  0
LINE
  8
0
 62
7
  6
CONTINUOUS
 10
35.4551565519
 20
11.0264583924
 11
35.3063366066
 21
11.0324111902
  0
LINE
  8
0
 62
7
  6
CONTINUOUS
 10
39.9435661037
 20
14.7945794087
 11
39.967377295
 21
14.8838713759
  0
LINE
  8
0
 62
7
  6
CONTINUOUS
 10
44.7831907266
 20
12.3182155181
 11
44.7593795353
 21
12.2289235509
  0
LINE
  8
0
 62
7
  6
CONTINUOUS
 10
28.8118341914
 20
15.0922192994
 11
28.7999285958
 21
15.0565025125
  0
LINE
  8
0
 62
7
  6
CONTINUOUS
 10
29.2106716449
 20
14.8838713759
 11
29.240435634
 21
14.9731633431
  0
LINE
  8
0
 62
7
  6
CONTINUOUS
 10
31.1572365301
 20
14.9910217366
 11
31.1334253389
 21
14.9195881628
  0
LINE
  8
0
 62
7
  6
CONTINUOUS
 10
34.0324378743
 20
12.3063099224
 11
34.0026738853
 21
12.2170179552
  0
LINE
  8
0
 62
7
  6
CONTINUOUS
 10
35.0503663005
 20
14.7945794087
 11
35.1098942787
 21
14.9731633431
  0
LINE
  8
0
 62
7
  6
CONTINUOUS
 10
37.020742377
 20
14.9910217366
 11
36.9969311857
 21
14.9195881628
  0
LINE
  8
0
 62
7
  6
CONTINUOUS
 10
39.967377295
 20
14.8838713759
 11
39.997141284
 21
14.9731633431
  0
LINE
  8
0
 62
7
  6
CONTINUOUS
 10
41.9079893824
 20
14.9910217366
 11
41.8841781911
 21
14.9195881628
  0
LINE
  8
0
 62
7
  6
CONTINUOUS
 10
34.0026738853
 20
12.2170179552
 11
33.9431459071
 21
12.0503396164
  0
LINE
  8
0
 62
7
  6
CONTINUOUS
 10
22.7816500057
 20
11.6753133541
 11
22.805461197
 21
11.7407941301
  0
LINE
  8
0
 62
7
  6
CONTINUOUS
 10
32.0561090001
 20
12.1217731902
 11
32.0799201913
 21
12.1872539662
  0
LINE
  8
0
 62
7
  6
CONTINUOUS
 10
23.0435731096
 20
15.7708382502
 11
23.0078563227
 21
15.6755934852
  0
LINE
  8
0
 62
7
  6
CONTINUOUS
 10
23.0852426943
 20
15.8660830153
 11
23.0673843008
 21
15.8184606327
  0
LINE
  8
0
 62
7
  6
CONTINUOUS
 10
28.6570614482
 20
14.3838363595
 11
28.6213446613
 21
14.2885915945
  0
LINE
  8
0
 62
7
  6
CONTINUOUS
 10
29.240435634
 20
14.9731633431
 11
29.2701996231
 21
15.0505497147
  0
LINE
  8
0
 62
7
  6
CONTINUOUS
 10
29.30591641
 20
15.1338888841
 11
29.335680399
 21
15.2112752557
  0
LINE
  8
0
 62
7
  6
CONTINUOUS
 10
35.1098942787
 20
14.9731633431
 11
35.1396582678
 21
15.0505497147
  0
LINE
  8
0
 62
7
  6
CONTINUOUS
 10
35.1753750546
 20
15.1338888841
 11
35.2051390437
 21
15.2112752557
  0
LINE
  8
0
 62
7
  6
CONTINUOUS
 10
28.0617816668
 20
11.8300860973
 11
28.0201120821
 21
11.7229357367
  0
LINE
  8
0
 62
7
  6
CONTINUOUS
 10
19.9600238419
 20
11.2348063159
 11
19.9719294375
 21
11.264570305
  0
LINE
  8
0
 62
7
  6
CONTINUOUS
 10
22.9840451314
 20
15.6220183049
 11
22.9602339402
 21
15.5624903267
  0
LINE
  8
0
 62
7
  6
CONTINUOUS
 10
22.7578388145
 20
11.615785376
 11
22.7816500057
 21
11.6753133541
  0
LINE
  8
0
 62
7
  6
CONTINUOUS
 10
22.6030660713
 20
11.2109951246
 11
22.6149716669
 21
11.2407591137
  0
LINE
  8
0
 62
7
  6
CONTINUOUS
 10
26.7164493608
 20
14.3004971902
 11
26.7283549565
 21
14.3302611792
  0
LINE
  8
0
 62
7
  6
CONTINUOUS
 10
22.6744996451
 20
11.425295846
 11
22.6923580385
 21
11.4669654307
  0
LINE
  8
0
 62
7
  6
CONTINUOUS
 10
23.1328650768
 20
15.9672805781
 11
23.1090538855
 21
15.9137053978
  0
LINE
  8
0
 62
7
  6
CONTINUOUS
 10
23.0078563227
 20
15.6755934852
 11
22.9840451314
 21
15.6220183049
  0
LINE
  8
0
 62
7
  6
CONTINUOUS
 10
22.7340276232
 20
11.5622101957
 11
22.7578388145
 21
11.615785376
  0
LINE
  8
0
 62
7
  6
CONTINUOUS
 10
38.3720274808
 20
11.8955668733
 11
38.4256026611
 21
11.9015196711
  0
LINE
  8
0
 62
7
  6
CONTINUOUS
 10
43.4259528249
 20
11.038363988
 11
43.2830856774
 21
11.0264583924
  0
LINE
  8
0
 62
7
  6
CONTINUOUS
 10
32.6811527705
 20
11.038363988
 11
32.538285623
 21
11.0264583924
  0
LINE
  8
0
 62
7
  6
CONTINUOUS
 10
27.0021836559
 20
11.0502695837
 11
26.9247972843
 21
11.0443167859
  0
LINE
  8
0
 62
7
  6
CONTINUOUS
 10
42.336590825
 20
15.2469920426
 11
42.2592044534
 21
15.2410392448
  0
LINE
  8
0
 62
7
  6
CONTINUOUS
 10
41.2710400163
 20
16.0922893322
 11
41.4258127594
 21
16.1041949278
  0
LINE
  8
0
 62
7
  6
CONTINUOUS
 10
36.3837930109
 20
16.0922893322
 11
36.5385657541
 21
16.1041949278
  0
LINE
  8
0
 62
7
  6
CONTINUOUS
 10
30.520287164
 20
16.0922893322
 11
30.6750599072
 21
16.1041949278
  0
LINE
  8
0
 62
7
  6
CONTINUOUS
 10
42.3842132075
 20
11.8777084798
 11
42.4675523769
 21
11.8836612776
  0
LINE
  8
0
 62
7
  6
CONTINUOUS
 10
26.9247972843
 20
11.0443167859
 11
26.8414581149
 21
11.038363988
  0
LINE
  8
0
 62
7
  6
CONTINUOUS
 10
31.6275075575
 20
11.8777084798
 11
31.7108467268
 21
11.8836612776
  0
LINE
  8
0
 62
7
  6
CONTINUOUS
 10
37.4493438196
 20
15.2469920426
 11
37.3660046502
 21
15.2410392448
  0
LINE
  8
0
 62
7
  6
CONTINUOUS
 10
31.5798851749
 20
15.2469920426
 11
31.4965460055
 21
15.2410392448
  0
LINE
  8
0
 62
7
  6
CONTINUOUS
 10
26.8414581149
 20
11.038363988
 11
26.6628741805
 21
11.0264583924
  0
LINE
  8
0
 62
7
  6
CONTINUOUS
 10
38.2113019398
 20
11.8896140755
 11
38.300593907
 21
11.8955668733
  0
LINE
  8
0
 62
7
  6
CONTINUOUS
 10
38.1160571748
 20
11.8836612776
 11
38.2113019398
 21
11.8896140755
  0
LINE
  8
0
 62
7
  6
CONTINUOUS
 10
37.88389806
 20
11.8777084798
 11
38.0089068141
 21
11.8836612776
  0
LINE
  8
0
 62
7
  6
CONTINUOUS
 10
27.6748498089
 20
13.6933118131
 11
27.4010211095
 21
13.6814062175
  0
LINE
  8
0
 62
7
  6
CONTINUOUS
 10
44.8129547156
 20
12.4075074853
 11
44.7831907266
 21
12.3182155181
  0
LINE
  8
0
 62
7
  6
CONTINUOUS
 10
40.0328580709
 20
15.0565025125
 11
40.06262206
 21
15.1398416819
  0
LINE
  8
0
 62
7
  6
CONTINUOUS
 10
44.7593795353
 20
12.2289235509
 11
44.7296155462
 21
12.1455843815
  0
LINE
  8
0
 62
7
  6
CONTINUOUS
 10
42.8128146501
 20
12.1217731902
 11
42.8366258414
 21
12.1872539662
  0
LINE
  8
0
 62
7
  6
CONTINUOUS
 10
38.9494488688
 20
12.0622452121
 11
38.5446586174
 21
11.0264583924
  0
LINE
  8
0
 62
7
  6
CONTINUOUS
 10
26.2164143445
 20
12.0801036055
 11
26.2342727379
 21
12.1217731902
  0
LINE
  8
0
 62
7
  6
CONTINUOUS
 10
29.2701996231
 20
15.0505497147
 11
29.30591641
 21
15.1338888841
  0
LINE
  8
0
 62
7
  6
CONTINUOUS
 10
35.1396582678
 20
15.0505497147
 11
35.1753750546
 21
15.1338888841
  0
LINE
  8
0
 62
7
  6
CONTINUOUS
 10
33.9431459071
 20
12.0503396164
 11
33.9074291202
 21
11.967000447
  0
LINE
  8
0
 62
7
  6
CONTINUOUS
 10
39.997141284
 20
14.9731633431
 11
40.0328580709
 21
15.0565025125
  0
LINE
  8
0
 62
7
  6
CONTINUOUS
 10
31.1870005192
 20
15.0565025125
 11
31.1572365301
 21
14.9910217366
  0
LINE
  8
0
 62
7
  6
CONTINUOUS
 10
28.6213446613
 20
14.2885915945
 11
28.5796750766
 21
14.1992996273
  0
LINE
  8
0
 62
7
  6
CONTINUOUS
 10
20.0135990222
 20
11.3776734634
 11
20.0493158091
 21
11.4491070372
  0
LINE
  8
0
 62
7
  6
CONTINUOUS
 10
19.9838350331
 20
11.3002870919
 11
20.0016934266
 21
11.3360038787
  0
LINE
  8
0
 62
7
  6
CONTINUOUS
 10
19.9183542572
 20
11.1633727421
 11
19.9362126506
 21
11.199089529
  0
LINE
  8
0
 62
7
  6
CONTINUOUS
 10
23.156676268
 20
16.0149029606
 11
23.1328650768
 21
15.9672805781
  0
LINE
  8
0
 62
7
  6
CONTINUOUS
 10
23.1090538855
 20
15.9137053978
 11
23.0852426943
 21
15.8660830153
  0
LINE
  8
0
 62
7
  6
CONTINUOUS
 10
23.0673843008
 20
15.8184606327
 11
23.0435731096
 21
15.7708382502
  0
LINE
  8
0
 62
7
  6
CONTINUOUS
 10
22.6268772626
 20
11.2764759006
 11
22.644735656
 21
11.3121926875
  0
LINE
  8
0
 62
7
  6
CONTINUOUS
 10
22.5792548801
 20
11.1633727421
 11
22.6030660713
 21
11.2109951246
  0
LINE
  8
0
 62
7
  6
CONTINUOUS
 10
26.6747797761
 20
14.2112052229
 11
26.6866853718
 21
14.2350164142
  0
LINE
  8
0
 62
7
  6
CONTINUOUS
 10
29.335680399
 20
15.2112752557
 11
29.3713971859
 21
15.2827088295
  0
LINE
  8
0
 62
7
  6
CONTINUOUS
 10
43.5688199725
 20
11.0621751793
 11
43.4259528249
 21
11.038363988
  0
LINE
  8
0
 62
7
  6
CONTINUOUS
 10
38.5029890327
 20
11.9015196711
 11
38.5744226065
 21
11.9134252667
  0
LINE
  8
0
 62
7
  6
CONTINUOUS
 10
32.8954534918
 20
11.0740807749
 11
32.6811527705
 21
11.038363988
  0
LINE
  8
0
 62
7
  6
CONTINUOUS
 10
27.2283899728
 20
11.0919391684
 11
27.1569563991
 21
11.0800335727
  0
LINE
  8
0
 62
7
  6
CONTINUOUS
 10
41.1996064425
 20
16.0803837366
 11
41.2710400163
 21
16.0922893322
  0
LINE
  8
0
 62
7
  6
CONTINUOUS
 10
26.4783374483
 20
14.1159604579
 11
26.5140542352
 21
14.1219132557
  0
LINE
  8
0
 62
7
  6
CONTINUOUS
 10
36.3123594371
 20
16.0803837366
 11
36.3837930109
 21
16.0922893322
  0
LINE
  8
0
 62
7
  6
CONTINUOUS
 10
30.3000336449
 20
16.0565725453
 11
30.4429007925
 21
16.0803837366
  0
LINE
  8
0
 62
7
  6
CONTINUOUS
 10
41.1222200709
 20
16.0684781409
 11
41.1996064425
 21
16.0803837366
  0
LINE
  8
0
 62
7
  6
CONTINUOUS
 10
36.2349730655
 20
16.0684781409
 11
36.3123594371
 21
16.0803837366
  0
LINE
  8
0
 62
7
  6
CONTINUOUS
 10
30.4429007925
 20
16.0803837366
 11
30.520287164
 21
16.0922893322
  0
LINE
  8
0
 62
7
  6
CONTINUOUS
 10
27.0855228253
 20
11.0621751793
 11
27.0021836559
 21
11.0502695837
  0
LINE
  8
0
 62
7
  6
CONTINUOUS
 10
27.799858563
 20
13.7111702066
 11
27.6748498089
 21
13.6933118131
  0
LINE
  8
0
 62
7
  6
CONTINUOUS
 10
26.4009510767
 20
14.1100076601
 11
26.4426206614
 21
14.1159604579
  0
LINE
  8
0
 62
7
  6
CONTINUOUS
 10
25.8890104647
 20
11.8777084798
 11
25.9366328472
 21
11.8836612776
  0
LINE
  8
0
 62
7
  6
CONTINUOUS
 10
44.7296155462
 20
12.1455843815
 11
44.6581819725
 21
11.9789060427
  0
LINE
  8
0
 62
7
  6
CONTINUOUS
 10
42.783050661
 20
12.0562924142
 11
42.8128146501
 21
12.1217731902
  0
LINE
  8
0
 62
7
  6
CONTINUOUS
 10
40.06262206
 20
15.1398416819
 11
40.0983388469
 21
15.2172280535
  0
LINE
  8
0
 62
7
  6
CONTINUOUS
 10
44.6581819725
 20
11.9789060427
 11
44.6224651856
 21
11.9015196711
  0
LINE
  8
0
 62
7
  6
CONTINUOUS
 10
35.2468086284
 20
15.2827088295
 11
35.2825254153
 21
15.3541424032
  0
LINE
  8
0
 62
7
  6
CONTINUOUS
 10
33.9074291202
 20
11.967000447
 11
33.8359955465
 21
11.8241332995
  0
LINE
  8
0
 62
7
  6
CONTINUOUS
 10
40.0983388469
 20
15.2172280535
 11
40.1697724206
 21
15.3600952011
  0
LINE
  8
0
 62
7
  6
CONTINUOUS
 10
44.6224651856
 20
11.9015196711
 11
44.5867483987
 21
11.8300860973
  0
LINE
  8
0
 62
7
  6
CONTINUOUS
 10
28.0201120821
 20
11.7229357367
 11
27.9665369018
 21
11.6217381738
  0
LINE
  8
0
 62
7
  6
CONTINUOUS
 10
29.4130667706
 20
15.3541424032
 11
29.4487835575
 21
15.4196231792
  0
LINE
  8
0
 62
7
  6
CONTINUOUS
 10
32.0203922132
 20
12.0562924142
 11
32.0561090001
 21
12.1217731902
  0
LINE
  8
0
 62
7
  6
CONTINUOUS
 10
35.2825254153
 20
15.3541424032
 11
35.3182422022
 21
15.4196231792
  0
LINE
  8
0
 62
7
  6
CONTINUOUS
 10
33.7943259618
 20
11.7526997257
 11
33.7586091749
 21
11.6872189498
  0
LINE
  8
0
 62
7
  6
CONTINUOUS
 10
37.0564591639
 20
15.0565025125
 11
37.020742377
 21
14.9910217366
  0
LINE
  8
0
 62
7
  6
CONTINUOUS
 10
23.2102514483
 20
16.1041949278
 11
23.1864402571
 21
16.0625253431
  0
LINE
  8
0
 62
7
  6
CONTINUOUS
 10
22.6923580385
 20
11.4669654307
 11
22.7161692298
 21
11.5086350153
  0
LINE
  8
0
 62
7
  6
CONTINUOUS
 10
28.5796750766
 20
14.1992996273
 11
28.5320526941
 21
14.1159604579
  0
LINE
  8
0
 62
7
  6
CONTINUOUS
 10
29.3713971859
 20
15.2827088295
 11
29.4130667706
 21
15.3541424032
  0
LINE
  8
0
 62
7
  6
CONTINUOUS
 10
22.4899629128
 20
11.0264583924
 11
22.5078213063
 21
11.0562223815
  0
LINE
  8
0
 62
7
  6
CONTINUOUS
 10
26.6866853718
 20
14.2350164142
 11
26.7045437652
 21
14.2647804033
  0
LINE
  8
0
 62
7
  6
CONTINUOUS
 10
26.1687919619
 20
11.9789060427
 11
26.2045087488
 21
12.0384340208
  0
LINE
  8
0
 62
7
  6
CONTINUOUS
 10
23.1864402571
 20
16.0625253431
 11
23.156676268
 21
16.0149029606
  0
LINE
  8
0
 62
7
  6
CONTINUOUS
 10
43.7057343222
 20
11.0978919662
 11
43.6402535463
 21
11.0800335727
  0
LINE
  8
0
 62
7
  6
CONTINUOUS
 10
32.9609342678
 20
11.0919391684
 11
32.8954534918
 21
11.0740807749
  0
LINE
  8
0
 62
7
  6
CONTINUOUS
 10
43.6402535463
 20
11.0800335727
 11
43.5688199725
 21
11.0621751793
  0
LINE
  8
0
 62
7
  6
CONTINUOUS
 10
38.7053841584
 20
11.9431892558
 11
38.7530065409
 21
11.9550948514
  0
LINE
  8
0
 62
7
  6
CONTINUOUS
 10
38.6637145737
 20
11.937236458
 11
38.6875257649
 21
11.9431892558
  0
LINE
  8
0
 62
7
  6
CONTINUOUS
 10
27.2998235466
 20
11.1097975618
 11
27.2283899728
 21
11.0919391684
  0
LINE
  8
0
 62
7
  6
CONTINUOUS
 10
27.1569563991
 20
11.0800335727
 11
27.0855228253
 21
11.0621751793
  0
LINE
  8
0
 62
7
  6
CONTINUOUS
 10
41.0507864971
 20
16.0506197475
 11
41.1222200709
 21
16.0684781409
  0
LINE
  8
0
 62
7
  6
CONTINUOUS
 10
36.0980587158
 20
16.0387141519
 11
36.1694922896
 21
16.0565725453
  0
LINE
  8
0
 62
7
  6
CONTINUOUS
 10
42.2592044534
 20
15.2410392448
 11
42.1818180818
 21
15.2231808513
  0
LINE
  8
0
 62
7
  6
CONTINUOUS
 10
37.3660046502
 20
15.2410392448
 11
37.2886182786
 21
15.2231808513
  0
LINE
  8
0
 62
7
  6
CONTINUOUS
 10
31.4965460055
 20
15.2410392448
 11
31.419159634
 21
15.2231808513
  0
LINE
  8
0
 62
7
  6
CONTINUOUS
 10
28.0201120821
 20
13.7587925891
 11
27.9129617215
 21
13.7349813978
  0
LINE
  8
0
 62
7
  6
CONTINUOUS
 10
42.4675523769
 20
11.8836612776
 11
42.5508915463
 21
11.9015196711
  0
LINE
  8
0
 62
7
  6
CONTINUOUS
 10
31.7108467268
 20
11.8836612776
 11
31.7941858962
 21
11.9015196711
  0
LINE
  8
0
 62
7
  6
CONTINUOUS
 10
27.9129617215
 20
13.7349813978
 11
27.799858563
 21
13.7111702066
  0
LINE
  8
0
 62
7
  6
CONTINUOUS
 10
38.6041865955
 20
11.9253308623
 11
38.6637145737
 21
11.937236458
  0
LINE
  8
0
 62
7
  6
CONTINUOUS
 10
26.0140192188
 20
11.8955668733
 11
26.0735471969
 21
11.9074724689
  0
LINE
  8
0
 62
7
  6
CONTINUOUS
 10
26.5140542352
 20
14.1219132557
 11
26.5438182242
 21
14.1278660535
  0
LINE
  8
0
 62
7
  6
CONTINUOUS
 10
36.1694922896
 20
16.0565725453
 11
36.2349730655
 21
16.0684781409
  0
LINE
  8
0
 62
7
  6
CONTINUOUS
 10
41.9437061692
 20
15.0565025125
 11
41.9079893824
 21
14.9910217366
  0
LINE
  8
0
 62
7
  6
CONTINUOUS
 10
35.2051390437
 20
15.2112752557
 11
35.2468086284
 21
15.2827088295
  0
LINE
  8
0
 62
7
  6
CONTINUOUS
 10
33.8359955465
 20
11.8241332995
 11
33.7943259618
 21
11.7526997257
  0
LINE
  8
0
 62
7
  6
CONTINUOUS
 10
44.5867483987
 20
11.8300860973
 11
44.545078814
 21
11.7586525235
  0
LINE
  8
0
 62
7
  6
CONTINUOUS
 10
40.25311159
 20
15.491056753
 11
40.2888283769
 21
15.5505847311
  0
LINE
  8
0
 62
7
  6
CONTINUOUS
 10
29.4904531422
 20
15.4791511573
 11
29.5321227269
 21
15.5446319333
  0
LINE
  8
0
 62
7
  6
CONTINUOUS
 10
35.3599117869
 20
15.4791511573
 11
35.4015813716
 21
15.5446319333
  0
LINE
  8
0
 62
7
  6
CONTINUOUS
 10
40.1697724206
 20
15.3600952011
 11
40.25311159
 21
15.491056753
  0
LINE
  8
0
 62
7
  6
CONTINUOUS
 10
19.9362126506
 20
11.199089529
 11
19.9600238419
 21
11.2348063159
  0
LINE
  8
0
 62
7
  6
CONTINUOUS
 10
19.8945430659
 20
11.1276559552
 11
19.9183542572
 21
11.1633727421
  0
LINE
  8
0
 62
7
  6
CONTINUOUS
 10
22.5078213063
 20
11.0562223815
 11
22.5792548801
 21
11.1633727421
  0
LINE
  8
0
 62
7
  6
CONTINUOUS
 10
26.1390279729
 20
11.937236458
 11
26.1509335685
 21
11.9550948514
  0
LINE
  8
0
 62
7
  6
CONTINUOUS
 10
27.9665369018
 20
11.6217381738
 11
27.9070089237
 21
11.5324462066
  0
LINE
  8
0
 62
7
  6
CONTINUOUS
 10
28.5320526941
 20
14.1159604579
 11
28.4784775138
 21
14.0385740863
  0
LINE
  8
0
 62
7
  6
CONTINUOUS
 10
29.4487835575
 20
15.4196231792
 11
29.4904531422
 21
15.4791511573
  0
LINE
  8
0
 62
7
  6
CONTINUOUS
 10
40.9853057212
 20
16.032761354
 11
41.0507864971
 21
16.0506197475
  0
LINE
  8
0
 62
7
  6
CONTINUOUS
 10
30.234552869
 20
16.0387141519
 11
30.3000336449
 21
16.0565725453
  0
LINE
  8
0
 62
7
  6
CONTINUOUS
 10
26.5735822133
 20
14.1397716492
 11
26.5973934046
 21
14.145724447
  0
LINE
  8
0
 62
7
  6
CONTINUOUS
 10
44.545078814
 20
11.7586525235
 11
44.5034092293
 21
11.6931717476
  0
LINE
  8
0
 62
7
  6
CONTINUOUS
 10
35.3182422022
 20
15.4196231792
 11
35.3599117869
 21
15.4791511573
  0
LINE
  8
0
 62
7
  6
CONTINUOUS
 10
33.7586091749
 20
11.6872189498
 11
33.7169395902
 21
11.6276909716
  0
LINE
  8
0
 62
7
  6
CONTINUOUS
 10
37.0981287486
 20
15.1160304907
 11
37.0564591639
 21
15.0565025125
  0
LINE
  8
0
 62
7
  6
CONTINUOUS
 10
44.5034092293
 20
11.6931717476
 11
44.4200700599
 21
11.5741157913
  0
LINE
  8
0
 62
7
  6
CONTINUOUS
 10
26.6569213827
 20
14.1873940317
 11
26.6747797761
 21
14.2112052229
  0
LINE
  8
0
 62
7
  6
CONTINUOUS
 10
26.1509335685
 20
11.9550948514
 11
26.1687919619
 21
11.9789060427
  0
LINE
  8
0
 62
7
  6
CONTINUOUS
 10
29.5321227269
 20
15.5446319333
 11
29.5737923116
 21
15.5982071136
  0
LINE
  8
0
 62
7
  6
CONTINUOUS
 10
31.9787226285
 20
12.0027172339
 11
32.0203922132
 21
12.0562924142
  0
LINE
  8
0
 62
7
  6
CONTINUOUS
 10
27.9070089237
 20
11.5324462066
 11
27.8415281477
 21
11.4491070372
  0
LINE
  8
0
 62
7
  6
CONTINUOUS
 10
19.8409678856
 20
11.0621751793
 11
19.8647790768
 21
11.0919391684
  0
LINE
  8
0
 62
7
  6
CONTINUOUS
 10
19.8647790768
 20
11.0919391684
 11
19.8945430659
 21
11.1276559552
  0
LINE
  8
0
 62
7
  6
CONTINUOUS
 10
19.8112038965
 20
11.0264583924
 11
19.8409678856
 21
11.0621751793
  0
LINE
  8
0
 62
7
  6
CONTINUOUS
 10
35.4015813716
 20
15.5446319333
 11
35.484920541
 21
15.6517822939
  0
LINE
  8
0
 62
7
  6
CONTINUOUS
 10
33.6693172077
 20
11.5741157913
 11
33.627647623
 21
11.520540611
  0
LINE
  8
0
 62
7
  6
CONTINUOUS
 10
40.2888283769
 20
15.5505847311
 11
40.3304979616
 21
15.6041599114
  0
LINE
  8
0
 62
7
  6
CONTINUOUS
 10
44.3724476774
 20
11.520540611
 11
44.3307780927
 21
11.4669654307
  0
LINE
  8
0
 62
7
  6
CONTINUOUS
 10
31.2346229017
 20
15.1160304907
 11
31.1870005192
 21
15.0565025125
  0
LINE
  8
0
 62
7
  6
CONTINUOUS
 10
41.9913285518
 20
15.1160304907
 11
41.9437061692
 21
15.0565025125
  0
LINE
  8
0
 62
7
  6
CONTINUOUS
 10
29.6214146941
 20
15.6517822939
 11
29.6630842788
 21
15.6994046765
  0
LINE
  8
0
 62
7
  6
CONTINUOUS
 10
35.5325429235
 20
15.6994046765
 11
35.5742125082
 21
15.747027059
  0
LINE
  8
0
 62
7
  6
CONTINUOUS
 10
29.5737923116
 20
15.5982071136
 11
29.6214146941
 21
15.6517822939
  0
LINE
  8
0
 62
7
  6
CONTINUOUS
 10
28.4784775138
 20
14.0385740863
 11
28.4189495357
 21
13.9730933104
  0
LINE
  8
0
 62
7
  6
CONTINUOUS
 10
40.3781203441
 20
15.6577350918
 11
40.4197899288
 21
15.7053574743
  0
LINE
  8
0
 62
7
  6
CONTINUOUS
 10
33.7169395902
 20
11.6276909716
 11
33.6693172077
 21
11.5741157913
  0
LINE
  8
0
 62
7
  6
CONTINUOUS
 10
33.627647623
 20
11.520540611
 11
33.5800252405
 21
11.4669654307
  0
LINE
  8
0
 62
7
  6
CONTINUOUS
 10
40.3304979616
 20
15.6041599114
 11
40.3781203441
 21
15.6577350918
  0
LINE
  8
0
 62
7
  6
CONTINUOUS
 10
42.7354282785
 20
12.0027172339
 11
42.783050661
 21
12.0562924142
  0
LINE
  8
0
 62
7
  6
CONTINUOUS
 10
44.4200700599
 20
11.5741157913
 11
44.3724476774
 21
11.520540611
  0
LINE
  8
0
 62
7
  6
CONTINUOUS
 10
29.6630842788
 20
15.6994046765
 11
29.7107066613
 21
15.747027059
  0
LINE
  8
0
 62
7
  6
CONTINUOUS
 10
28.6689670439
 20
12.4967994525
 11
28.6868254373
 21
12.5146578459
  0
LINE
  8
0
 62
7
  6
CONTINUOUS
 10
27.8415281477
 20
11.4491070372
 11
27.7641417761
 21
11.3717206656
  0
LINE
  8
0
 62
7
  6
CONTINUOUS
 10
35.484920541
 20
15.6517822939
 11
35.5325429235
 21
15.6994046765
  0
LINE
  8
0
 62
7
  6
CONTINUOUS
 10
40.4197899288
 20
15.7053574743
 11
40.4614595135
 21
15.747027059
  0
LINE
  8
0
 62
7
  6
CONTINUOUS
 10
44.2831557102
 20
11.425295846
 11
44.2414861255
 21
11.3836262613
  0
LINE
  8
0
 62
7
  6
CONTINUOUS
 10
27.7641417761
 20
11.3717206656
 11
27.6867554045
 21
11.3002870919
  0
LINE
  8
0
 62
7
  6
CONTINUOUS
 10
28.4189495357
 20
13.9730933104
 11
28.3534687597
 21
13.9135653322
  0
LINE
  8
0
 62
7
  6
CONTINUOUS
 10
31.288198082
 20
15.1636528732
 11
31.2346229017
 21
15.1160304907
  0
LINE
  8
0
 62
7
  6
CONTINUOUS
 10
37.1517039289
 20
15.1636528732
 11
37.0981287486
 21
15.1160304907
  0
LINE
  8
0
 62
7
  6
CONTINUOUS
 10
29.7107066613
 20
15.747027059
 11
29.7583290438
 21
15.7886966437
  0
LINE
  8
0
 62
7
  6
CONTINUOUS
 10
35.5742125082
 20
15.747027059
 11
35.6218348907
 21
15.7886966437
  0
LINE
  8
0
 62
7
  6
CONTINUOUS
 10
33.5800252405
 20
11.4669654307
 11
33.4371580929
 21
11.3419566766
  0
LINE
  8
0
 62
7
  6
CONTINUOUS
 10
40.4614595135
 20
15.747027059
 11
40.5090818961
 21
15.7886966437
  0
LINE
  8
0
 62
7
  6
CONTINUOUS
 10
44.3307780927
 20
11.4669654307
 11
44.2831557102
 21
11.425295846
  0
LINE
  8
0
 62
7
  6
CONTINUOUS
 10
44.2414861255
 20
11.3836262613
 11
44.193863743
 21
11.3419566766
  0
LINE
  8
0
 62
7
  6
CONTINUOUS
 10
42.0508565299
 20
15.1636528732
 11
41.9913285518
 21
15.1160304907
  0
LINE
  8
0
 62
7
  6
CONTINUOUS
 10
38.812534519
 20
11.9848588405
 11
38.8422985081
 21
12.0086700317
  0
LINE
  8
0
 62
7
  6
CONTINUOUS
 10
29.7583290438
 20
15.7886966437
 11
29.8654794045
 21
15.8720358131
  0
LINE
  8
0
 62
7
  6
CONTINUOUS
 10
35.6218348907
 20
15.7886966437
 11
35.7289852513
 21
15.8720358131
  0
LINE
  8
0
 62
7
  6
CONTINUOUS
 10
31.9251474482
 20
11.9610476492
 11
31.9787226285
 21
12.0027172339
  0
LINE
  8
0
 62
7
  6
CONTINUOUS
 10
33.4371580929
 20
11.3419566766
 11
33.3300077323
 21
11.2586175072
  0
LINE
  8
0
 62
7
  6
CONTINUOUS
 10
40.5626570764
 20
15.8244134306
 11
40.6162322567
 21
15.8660830153
  0
LINE
  8
0
 62
7
  6
CONTINUOUS
 10
26.6331101914
 20
14.1695356382
 11
26.6569213827
 21
14.1873940317
  0
LINE
  8
0
 62
7
  6
CONTINUOUS
 10
27.6867554045
 20
11.3002870919
 11
27.639133022
 21
11.264570305
  0
LINE
  8
0
 62
7
  6
CONTINUOUS
 10
42.6818530982
 20
11.9610476492
 11
42.7354282785
 21
12.0027172339
  0
LINE
  8
0
 62
7
  6
CONTINUOUS
 10
26.5973934046
 20
14.145724447
 11
26.6331101914
 21
14.1695356382
  0
LINE
  8
0
 62
7
  6
CONTINUOUS
 10
29.8654794045
 20
15.8720358131
 11
29.9190545848
 21
15.9077526
  0
LINE
  8
0
 62
7
  6
CONTINUOUS
 10
26.1211695794
 20
11.9253308623
 11
26.1390279729
 21
11.937236458
  0
LINE
  8
0
 62
7
  6
CONTINUOUS
 10
35.7289852513
 20
15.8720358131
 11
35.7825604317
 21
15.9077526
  0
LINE
  8
0
 62
7
  6
CONTINUOUS
 10
40.5090818961
 20
15.7886966437
 11
40.5626570764
 21
15.8244134306
  0
LINE
  8
0
 62
7
  6
CONTINUOUS
 10
44.193863743
 20
11.3419566766
 11
44.0867133823
 21
11.2705231028
  0
LINE
  8
0
 62
7
  6
CONTINUOUS
 10
27.639133022
 20
11.264570305
 11
27.5915106395
 21
11.2348063159
  0
LINE
  8
0
 62
7
  6
CONTINUOUS
 10
31.3477260602
 20
15.1993696601
 11
31.288198082
 21
15.1636528732
  0
LINE
  8
0
 62
7
  6
CONTINUOUS
 10
31.86561947
 20
11.9253308623
 11
31.9251474482
 21
11.9610476492
  0
LINE
  8
0
 62
7
  6
CONTINUOUS
 10
40.669807437
 20
15.8958470043
 11
40.7293354152
 21
15.9315637912
  0
LINE
  8
0
 62
7
  6
CONTINUOUS
 10
33.3300077323
 20
11.2586175072
 11
33.2704797541
 21
11.2229007203
  0
LINE
  8
0
 62
7
  6
CONTINUOUS
 10
38.78277053
 20
11.967000447
 11
38.812534519
 21
11.9848588405
  0
LINE
  8
0
 62
7
  6
CONTINUOUS
 10
42.62232512
 20
11.9253308623
 11
42.6818530982
 21
11.9610476492
  0
LINE
  8
0
 62
7
  6
CONTINUOUS
 10
28.3534687597
 20
13.9135653322
 11
28.2820351859
 21
13.8718957475
  0
LINE
  8
0
 62
7
  6
CONTINUOUS
 10
44.0867133823
 20
11.2705231028
 11
44.0271854042
 21
11.2348063159
  0
LINE
  8
0
 62
7
  6
CONTINUOUS
 10
27.5915106395
 20
11.2348063159
 11
27.5379354592
 21
11.2050423268
  0
LINE
  8
0
 62
7
  6
CONTINUOUS
 10
40.6162322567
 20
15.8660830153
 11
40.669807437
 21
15.8958470043
  0
LINE
  8
0
 62
7
  6
CONTINUOUS
 10
37.2171847049
 20
15.1993696601
 11
37.1517039289
 21
15.1636528732
  0
LINE
  8
0
 62
7
  6
CONTINUOUS
 10
42.1163373059
 20
15.1993696601
 11
42.0508565299
 21
15.1636528732
  0
LINE
  8
0
 62
7
  6
CONTINUOUS
 10
28.2820351859
 20
13.8718957475
 11
28.2046488144
 21
13.8302261628
  0
LINE
  8
0
 62
7
  6
CONTINUOUS
 10
29.9190545848
 20
15.9077526
 11
30.0381105411
 21
15.9672805781
  0
LINE
  8
0
 62
7
  6
CONTINUOUS
 10
35.7825604317
 20
15.9077526
 11
35.901616388
 21
15.9672805781
  0
LINE
  8
0
 62
7
  6
CONTINUOUS
 10
40.7293354152
 20
15.9315637912
 11
40.7888633933
 21
15.9613277803
  0
LINE
  8
0
 62
7
  6
CONTINUOUS
 10
33.2704797541
 20
11.2229007203
 11
33.1514237979
 21
11.1633727421
  0
LINE
  8
0
 62
7
  6
CONTINUOUS
 10
38.8422985081
 20
12.0086700317
 11
38.9494488688
 21
12.0622452121
  0
LINE
  8
0
 62
7
  6
CONTINUOUS
 10
44.0271854042
 20
11.2348063159
 11
43.967657426
 21
11.2050423268
  0
LINE
  8
0
 62
7
  6
CONTINUOUS
 10
43.967657426
 20
11.2050423268
 11
43.8366958741
 21
11.1455143487
  0
LINE
  8
0
 62
7
  6
CONTINUOUS
 10
27.5379354592
 20
11.2050423268
 11
27.4843602789
 21
11.1812311356
  0
LINE
  8
0
 62
7
  6
CONTINUOUS
 10
26.5438182242
 20
14.1278660535
 11
26.5735822133
 21
14.1397716492
  0
LINE
  8
0
 62
7
  6
CONTINUOUS
 10
28.2046488144
 20
13.8302261628
 11
28.1153568471
 21
13.794509376
  0
LINE
  8
0
 62
7
  6
CONTINUOUS
 10
26.0735471969
 20
11.9074724689
 11
26.103311186
 21
11.9193780645
  0
LINE
  8
0
 62
7
  6
CONTINUOUS
 10
27.4843602789
 20
11.1812311356
 11
27.3653043226
 21
11.1336087531
  0
LINE
  8
0
 62
7
  6
CONTINUOUS
 10
40.7888633933
 20
15.9613277803
 11
40.8483913715
 21
15.9851389715
  0
LINE
  8
0
 62
7
  6
CONTINUOUS
 10
33.1514237979
 20
11.1633727421
 11
33.0918958197
 21
11.1395615509
  0
LINE
  8
0
 62
7
  6
CONTINUOUS
 10
38.5744226065
 20
11.9134252667
 11
38.6041865955
 21
11.9253308623
  0
LINE
  8
0
 62
7
  6
CONTINUOUS
 10
38.7530065409
 20
11.9550948514
 11
38.78277053
 21
11.967000447
  0
LINE
  8
0
 62
7
  6
CONTINUOUS
 10
28.1153568471
 20
13.794509376
 11
28.0201120821
 21
13.7587925891
  0
LINE
  8
0
 62
7
  6
CONTINUOUS
 10
30.0381105411
 20
15.9672805781
 11
30.234552869
 21
16.0387141519
  0
LINE
  8
0
 62
7
  6
CONTINUOUS
 10
35.901616388
 20
15.9672805781
 11
36.0980587158
 21
16.0387141519
  0
LINE
  8
0
 62
7
  6
CONTINUOUS
 10
27.3653043226
 20
11.1336087531
 11
27.2998235466
 21
11.1097975618
  0
LINE
  8
0
 62
7
  6
CONTINUOUS
 10
40.8483913715
 20
15.9851389715
 11
40.9138721474
 21
16.0089501628
  0
LINE
  8
0
 62
7
  6
CONTINUOUS
 10
42.1818180818
 20
15.2231808513
 11
42.1163373059
 21
15.1993696601
  0
LINE
  8
0
 62
7
  6
CONTINUOUS
 10
33.0918958197
 20
11.1395615509
 11
32.9609342678
 21
11.0919391684
  0
LINE
  8
0
 62
7
  6
CONTINUOUS
 10
43.8366958741
 20
11.1455143487
 11
43.7057343222
 21
11.0978919662
  0
LINE
  8
0
 62
7
  6
CONTINUOUS
 10
31.419159634
 20
15.2231808513
 11
31.3477260602
 21
15.1993696601
  0
LINE
  8
0
 62
7
  6
CONTINUOUS
 10
26.103311186
 20
11.9193780645
 11
26.1211695794
 21
11.9253308623
  0
LINE
  8
0
 62
7
  6
CONTINUOUS
 10
37.2886182786
 20
15.2231808513
 11
37.2171847049
 21
15.1993696601
  0
LINE
  8
0
 62
7
  6
CONTINUOUS
 10
40.9138721474
 20
16.0089501628
 11
40.9853057212
 21
16.032761354
  0
LINE
  8
0
 62
7
  6
CONTINUOUS
 10
31.7941858962
 20
11.9015196711
 11
31.86561947
 21
11.9253308623
  0
LINE
  8
0
 62
7
  6
CONTINUOUS
 10
42.5508915463
 20
11.9015196711
 11
42.62232512
 21
11.9253308623
  0
LINE
  8
0
 62
7
  6
CONTINUOUS
 10
25.9723496341
 20
11.8836612776
 11
26.0140192188
 21
11.8955668733
  0
LINE
  8
0
 62
7
  6
CONTINUOUS
 10
0.0
 20
297.0
 11
420.0
 21
297.0
  0
LINE
  8
0
 62
7
  6
CONTINUOUS
 10
420.0
 20
0.0
 11
420.0
 21
297.0
  0
LINE
  8
BEZUGSACHSEN
 62
7
  6
CONTINUOUS
 10
76.4045454798
 20
152.4549881575
 11
63.1545454798
 21
152.4549881575
  0
LINE
  8
0
 62
7
  6
CONTINUOUS
 10
76.4045454798
 20
152.4549881575
 11
85.1545454798
 21
152.4549881575
  0
LINE
  8
0
 62
7
  6
CONTINUOUS
 10
84.2545454798
 20
154.3549881575
 11
76.4045454798
 21
154.3549881575
  0
LINE
  8
BEZUGSACHSEN
 62
7
  6
CONTINUOUS
 10
64.0545454798
 20
154.3549881575
 11
76.4045454798
 21
154.3549881575
  0
LINE
  8
BEZUGSACHSEN
 62
7
  6
CONTINUOUS
 10
63.4512225223
 20
154.6549881575
 11
63.6815529401
 21
154.5220068288
  0
LINE
  8
KONSTRUKTIONSELEMENTE
 62
7
  6
CONTINUOUS
 10
84.7372521315
 20
154.7246260142
 11
84.8578684374
 21
154.6549881575
  0
LINE
  8
BEZUGSACHSEN
 62
7
  6
CONTINUOUS
 10
63.4545454798
 20
170.4549881575
 11
63.5545454798
 21
170.3972531306
  0
LINE
  8
0
 62
7
  6
CONTINUOUS
 10
63.3654038644
 20
248.0280078538
 11
63.9659724991
 21
248.7696483531
  0
LINE
  8
BEZUGSACHSEN
 62
7
  6
CONTINUOUS
 10
61.9258174134
 20
243.5955398751
 11
65.0279519108
 21
248.0258470742
  0
LINE
  8
0
 62
7
  6
CONTINUOUS
 10
64.7431184606
 20
248.140327962
 11
62.3654038644
 21
245.2040949682
  0
LINE
  8
BEZUGSACHSEN
 62
7
  6
CONTINUOUS
 10
66.0332250295
 20
246.1489769633
 11
63.6449694577
 21
242.7381945287
  0
LINE
  8
KONSTRUKTIONSELEMENTE
 62
7
  6
CONTINUOUS
 10
84.7545454798
 20
170.5127231845
 11
84.8545454798
 21
170.4549881575
  0
LINE
  8
BEZUGSACHSEN
 62
7
  6
CONTINUOUS
 10
61.6545454798
 20
153.9549881575
 11
61.6545454798
 21
242.7351752206
  0
LINE
  8
0
 62
7
  6
CONTINUOUS
 10
61.6545454798
 20
245.4558231246
 11
61.6545454798
 21
251.9549881575
  0
LINE
  8
0
 62
7
  6
CONTINUOUS
 10
62.6545454798
 20
251.7549881575
 11
62.6545454798
 21
250.9549881575
  0
LINE
  8
0
 62
7
  6
CONTINUOUS
 10
62.6545454798
 20
248.8549881575
 11
62.6545454798
 21
248.2797360102
  0
LINE
  8
0
 62
7
  6
CONTINUOUS
 10
63.1545454798
 20
249.1549881575
 11
63.1545454798
 21
250.6549881575
  0
LINE
  8
BEZUGSACHSEN
 62
7
  6
CONTINUOUS
 10
63.5545454798
 20
242.4514063106
 11
63.5545454798
 21
170.5127231845
  0
LINE
  8
BEZUGSACHSEN
 62
7
  6
CONTINUOUS
 10
63.5545454798
 20
170.3972531306
 11
63.5545454798
 21
154.8549881575
  0
LINE
  8
BEZUGSACHSEN
 62
7
  6
CONTINUOUS
 10
67.3545454798
 20
249.2549881575
 11
67.3545454798
 21
248.0805219119
  0
LINE
  8
BEZUGSACHSEN
 62
7
  6
CONTINUOUS
 10
71.9045454798
 20
152.4549881575
 11
71.9045454798
 21
154.3549881575
  0
LINE
  8
0
 62
7
  6
CONTINUOUS
 10
76.4045454798
 20
152.4549881575
 11
76.4045454798
 21
154.3549881575
  0
LINE
  8
KONSTRUKTIONSELEMENTE
 62
7
  6
CONTINUOUS
 10
80.9545454798
 20
249.2549881575
 11
80.9545454798
 21
248.0805219119
  0
LINE
  8
KONSTRUKTIONSELEMENTE
 62
7
  6
CONTINUOUS
 10
84.7545454798
 20
242.4514063106
 11
84.7545454798
 21
170.5127231845
  0
LINE
  8
KONSTRUKTIONSELEMENTE
 62
7
  6
CONTINUOUS
 10
84.7545454798
 20
170.3972531306
 11
84.7545454798
 21
154.8549881575
  0
LINE
  8
0
 62
7
  6
CONTINUOUS
 10
85.1545454798
 20
249.1549881575
 11
85.1545454798
 21
250.6549881575
  0
LINE
  8
0
 62
7
  6
CONTINUOUS
 10
85.6545454798
 20
251.7549881575
 11
85.6545454798
 21
250.9549881575
  0
LINE
  8
0
 62
7
  6
CONTINUOUS
 10
85.6545454798
 20
248.8549881575
 11
85.6545454798
 21
248.2797360102
  0
LINE
  8
KONSTRUKTIONSELEMENTE
 62
7
  6
CONTINUOUS
 10
86.6545454798
 20
153.9549881575
 11
86.6545454798
 21
242.7351752206
  0
LINE
  8
KONSTRUKTIONSELEMENTE
 62
7
  6
CONTINUOUS
 10
86.6545454798
 20
245.4558231246
 11
86.6545454798
 21
251.9549881575
  0
LINE
  8
BEZUGSACHSEN
 62
7
  6
CONTINUOUS
 10
63.5545454798
 20
170.5127231845
 11
63.4545454798
 21
170.4549881575
  0
LINE
  8
KONSTRUKTIONSELEMENTE
 62
7
  6
CONTINUOUS
 10
82.2758659301
 20
246.1489769633
 11
84.664121502
 21
242.7381945287
  0
LINE
  8
KONSTRUKTIONSELEMENTE
 62
7
  6
CONTINUOUS
 10
83.5659724991
 20
248.140327962
 11
85.9436870953
 21
245.2040949682
  0
LINE
  8
KONSTRUKTIONSELEMENTE
 62
7
  6
CONTINUOUS
 10
84.9436870953
 20
248.0280078538
 11
84.3431184606
 21
248.7696483531
  0
LINE
  8
KONSTRUKTIONSELEMENTE
 62
7
  6
CONTINUOUS
 10
86.3832735463
 20
243.5955398751
 11
83.2811390488
 21
248.0258470742
  0
LINE
  8
KONSTRUKTIONSELEMENTE
 62
7
  6
CONTINUOUS
 10
84.8545454798
 20
170.4549881575
 11
84.7545454798
 21
170.3972531306
  0
LINE
  8
BEZUGSACHSEN
 62
7
  6
CONTINUOUS
 10
63.5718388281
 20
154.7246260142
 11
63.4512225223
 21
154.6549881575
  0
LINE
  8
0
 62
7
  6
CONTINUOUS
 10
85.5545454798
 20
248.9549881575
 11
85.3545454798
 21
248.9549881575
  0
LINE
  8
0
 62
7
  6
CONTINUOUS
 10
62.7545454798
 20
248.9549881575
 11
62.9545454798
 21
248.9549881575
  0
LINE
  8
BEZUGSACHSEN
 62
7
  6
CONTINUOUS
 10
64.3329917555
 20
249.1167160068
 11
63.4760992042
 21
248.9656227304
  0
LINE
  8
0
 62
7
  6
CONTINUOUS
 10
62.9545454798
 20
250.8549881575
 11
62.7545454798
 21
250.8549881575
  0
LINE
  8
0
 62
7
  6
CONTINUOUS
 10
85.3545454798
 20
250.8549881575
 11
85.5545454798
 21
250.8549881575
  0
LINE
  8
KONSTRUKTIONSELEMENTE
 62
7
  6
CONTINUOUS
 10
83.3002613815
 20
251.0549881575
 11
82.7545454798
 21
251.0549881575
  0
LINE
  8
BEZUGSACHSEN
 62
7
  6
CONTINUOUS
 10
65.0088295782
 20
251.0549881575
 11
65.5545454798
 21
251.0549881575
  0
LINE
  8
0
 62
7
  6
CONTINUOUS
 10
62.8545454798
 20
251.9549881575
 11
85.4545454798
 21
251.9549881575
  0
LINE
  8
0
 62
7
  6
CONTINUOUS
 10
85.6545454798
 20
252.9549881575
 11
62.6545454798
 21
252.9549881575
  0
LINE
  8
KONSTRUKTIONSELEMENTE
 62
7
  6
CONTINUOUS
 10
83.9760992042
 20
249.1167160068
 11
84.8329917555
 21
248.9656227304
  0
LINE
  8
KONSTRUKTIONSELEMENTE
 62
7
  6
CONTINUOUS
 10
84.8578684374
 20
154.6549881575
 11
84.6275380196
 21
154.5220068288
  0
LINE
  8
BEZUGSACHSEN
 62
7
  6
CONTINUOUS
 10
159.7634644079
 20
152.4549881575
 11
159.7634644079
 21
170.4549881575
  0
LINE
  8
0
 62
7
  6
CONTINUOUS
 10
159.7634644079
 20
245.0558232887
 11
159.7634644079
 21
252.9549881575
  0
LINE
  8
BEZUGSACHSEN
 62
7
  6
CONTINUOUS
 10
160.2634644079
 20
245.0558231246
 11
160.2634644079
 21
244.691056135
  0
LINE
  8
BEZUGSACHSEN
 62
7
  6
CONTINUOUS
 10
160.2634644079
 20
170.9549881575
 11
160.2634644079
 21
204.21892018
  0
LINE
  8
BEZUGSACHSEN
 62
7
  6
CONTINUOUS
 10
160.2634644079
 20
208.691056135
 11
160.2634644079
 21
240.21892018
  0
LINE
  8
BEZUGSACHSEN
 62
7
  6
CONTINUOUS
 10
166.2634644079
 20
245.0558231246
 11
166.2634644079
 21
244.691056135
  0
LINE
  8
BEZUGSACHSEN
 62
7
  6
CONTINUOUS
 10
166.2634644079
 20
240.21892018
 11
166.2634644079
 21
208.691056135
  0
LINE
  8
BEZUGSACHSEN
 62
7
  6
CONTINUOUS
 10
166.2634644079
 20
204.21892018
 11
166.2634644079
 21
170.9549881575
  0
LINE
  8
BEZUGSACHSEN
 62
7
  6
CONTINUOUS
 10
170.2634644079
 20
245.0558231246
 11
170.2634644079
 21
244.691056135
  0
LINE
  8
BEZUGSACHSEN
 62
7
  6
CONTINUOUS
 10
170.2634644079
 20
170.9549881575
 11
170.2634644079
 21
204.21892018
  0
LINE
  8
BEZUGSACHSEN
 62
7
  6
CONTINUOUS
 10
170.2634644079
 20
208.691056135
 11
170.2634644079
 21
240.21892018
  0
LINE
  8
BEZUGSACHSEN
 62
7
  6
CONTINUOUS
 10
176.2634644079
 20
245.0558231246
 11
176.2634644079
 21
244.691056135
  0
LINE
  8
BEZUGSACHSEN
 62
7
  6
CONTINUOUS
 10
176.2634644079
 20
240.21892018
 11
176.2634644079
 21
208.691056135
  0
LINE
  8
BEZUGSACHSEN
 62
7
  6
CONTINUOUS
 10
176.2634644079
 20
204.21892018
 11
176.2634644079
 21
170.9549881575
  0
LINE
  8
0
 62
2
  6
CONTINUOUS
 10
322.7634644079
 20
147.2049881575
 11
313.7634644079
 21
147.2049881575
  0
LINE
  8
0
 62
2
  6
CONTINUOUS
 10
322.7634644079
 20
147.9549881575
 11
313.7634644079
 21
147.9549881575
  0
LINE
  8
BEZUGSACHSEN
 62
7
  6
CONTINUOUS
 10
180.2634644079
 20
245.0558231246
 11
180.2634644079
 21
244.691056135
  0
LINE
  8
BEZUGSACHSEN
 62
7
  6
CONTINUOUS
 10
180.2634644079
 20
170.9549881575
 11
180.2634644079
 21
204.21892018
  0
LINE
  8
BEZUGSACHSEN
 62
7
  6
CONTINUOUS
 10
180.2634644079
 20
208.691056135
 11
180.2634644079
 21
240.21892018
  0
LINE
  8
BEZUGSACHSEN
 62
7
  6
CONTINUOUS
 10
318.263464407
 20
152.4549881575
 11
159.7634644079
 21
152.4549881575
  0
LINE
  8
BEZUGSACHSEN
 62
9
  6
CONTINUOUS
 10
318.263464407
 20
153.9549881575
 11
159.7634644079
 21
153.9549881575
  0
LINE
  8
BEZUGSACHSEN
 62
7
  6
CONTINUOUS
 10
186.2634644079
 20
245.0558231246
 11
186.2634644079
 21
244.691056135
  0
LINE
  8
BEZUGSACHSEN
 62
7
  6
CONTINUOUS
 10
186.2634644079
 20
240.21892018
 11
186.2634644079
 21
208.691056135
  0
LINE
  8
BEZUGSACHSEN
 62
7
  6
CONTINUOUS
 10
186.2634644079
 20
204.21892018
 11
186.2634644079
 21
170.9549881575
  0
LINE
  8
BEZUGSACHSEN
 62
7
  6
CONTINUOUS
 10
190.2634644079
 20
245.0558231246
 11
190.2634644079
 21
244.691056135
  0
LINE
  8
BEZUGSACHSEN
 62
7
  6
CONTINUOUS
 10
190.2634644079
 20
170.9549881575
 11
190.2634644079
 21
204.21892018
  0
LINE
  8
BEZUGSACHSEN
 62
7
  6
CONTINUOUS
 10
190.2634644079
 20
208.691056135
 11
190.2634644079
 21
240.21892018
  0
LINE
  8
BEZUGSACHSEN
 62
7
  6
CONTINUOUS
 10
196.2634644079
 20
245.0558231246
 11
196.2634644079
 21
244.691056135
  0
LINE
  8
BEZUGSACHSEN
 62
7
  6
CONTINUOUS
 10
196.2634644079
 20
240.21892018
 11
196.2634644079
 21
208.691056135
  0
LINE
  8
BEZUGSACHSEN
 62
7
  6
CONTINUOUS
 10
196.2634644079
 20
204.21892018
 11
196.2634644079
 21
170.9549881575
  0
LINE
  8
BEZUGSACHSEN
 62
7
  6
CONTINUOUS
 10
200.2634644079
 20
245.0558231246
 11
200.2634644079
 21
244.691056135
  0
LINE
  8
BEZUGSACHSEN
 62
7
  6
CONTINUOUS
 10
200.2634644079
 20
170.9549881575
 11
200.2634644079
 21
204.21892018
  0
LINE
  8
BEZUGSACHSEN
 62
7
  6
CONTINUOUS
 10
200.2634644079
 20
208.691056135
 11
200.2634644079
 21
240.21892018
  0
LINE
  8
BEZUGSACHSEN
 62
7
  6
CONTINUOUS
 10
279.7634644079
 20
170.4549881575
 11
276.7634644079
 21
170.4549881575
  0
LINE
  8
BEZUGSACHSEN
 62
7
  6
CONTINUOUS
 10
166.7634644079
 20
170.4549881575
 11
169.7634644079
 21
170.4549881575
  0
LINE
  8
BEZUGSACHSEN
 62
7
  6
CONTINUOUS
 10
176.7634644079
 20
170.4549881575
 11
179.7634644079
 21
170.4549881575
  0
LINE
  8
BEZUGSACHSEN
 62
7
  6
CONTINUOUS
 10
186.7634644079
 20
170.4549881575
 11
189.7634644079
 21
170.4549881575
  0
LINE
  8
BEZUGSACHSEN
 62
7
  6
CONTINUOUS
 10
196.7634644079
 20
170.4549881575
 11
199.7634644079
 21
170.4549881575
  0
LINE
  8
BEZUGSACHSEN
 62
7
  6
CONTINUOUS
 10
206.7634644079
 20
170.4549881575
 11
209.7634644079
 21
170.4549881575
  0
LINE
  8
BEZUGSACHSEN
 62
7
  6
CONTINUOUS
 10
216.7634644079
 20
170.4549881575
 11
219.7634644079
 21
170.4549881575
  0
LINE
  8
BEZUGSACHSEN
 62
7
  6
CONTINUOUS
 10
226.7634644079
 20
170.4549881575
 11
229.7634644079
 21
170.4549881575
  0
LINE
  8
BEZUGSACHSEN
 62
7
  6
CONTINUOUS
 10
236.7634644079
 20
170.4549881575
 11
239.7634644079
 21
170.4549881575
  0
LINE
  8
BEZUGSACHSEN
 62
7
  6
CONTINUOUS
 10
246.7634644079
 20
170.4549881575
 11
249.7634644079
 21
170.4549881575
  0
LINE
  8
BEZUGSACHSEN
 62
7
  6
CONTINUOUS
 10
256.7634644079
 20
170.4549881575
 11
259.7634644079
 21
170.4549881575
  0
LINE
  8
BEZUGSACHSEN
 62
7
  6
CONTINUOUS
 10
266.7634644079
 20
170.4549881575
 11
269.7634644079
 21
170.4549881575
  0
LINE
  8
BEZUGSACHSEN
 62
7
  6
CONTINUOUS
 10
286.7634644079
 20
170.4549881575
 11
289.7634644079
 21
170.4549881575
  0
LINE
  8
BEZUGSACHSEN
 62
7
  6
CONTINUOUS
 10
296.7634644079
 20
170.4549881575
 11
299.7634644079
 21
170.4549881575
  0
LINE
  8
BEZUGSACHSEN
 62
7
  6
CONTINUOUS
 10
306.7634644079
 20
170.4549881575
 11
309.7634644079
 21
170.4549881575
  0
LINE
  8
BEZUGSACHSEN
 62
7
  6
CONTINUOUS
 10
316.7634644079
 20
170.4549881575
 11
318.263464407
 21
170.4549881575
  0
LINE
  8
BEZUGSACHSEN
 62
7
  6
CONTINUOUS
 10
206.2634644079
 20
245.0558231246
 11
206.2634644079
 21
244.691056135
  0
LINE
  8
BEZUGSACHSEN
 62
7
  6
CONTINUOUS
 10
206.2634644079
 20
240.21892018
 11
206.2634644079
 21
208.691056135
  0
LINE
  8
BEZUGSACHSEN
 62
7
  6
CONTINUOUS
 10
206.2634644079
 20
204.21892018
 11
206.2634644079
 21
170.9549881575
  0
LINE
  8
BEZUGSACHSEN
 62
7
  6
CONTINUOUS
 10
210.2634644079
 20
245.0558231246
 11
210.2634644079
 21
244.691056135
  0
LINE
  8
BEZUGSACHSEN
 62
7
  6
CONTINUOUS
 10
210.2634644079
 20
170.9549881575
 11
210.2634644079
 21
204.21892018
  0
LINE
  8
BEZUGSACHSEN
 62
7
  6
CONTINUOUS
 10
210.2634644079
 20
208.691056135
 11
210.2634644079
 21
240.21892018
  0
LINE
  8
BEZUGSACHSEN
 62
7
  6
CONTINUOUS
 10
216.2634644079
 20
245.0558231246
 11
216.2634644079
 21
244.691056135
  0
LINE
  8
BEZUGSACHSEN
 62
7
  6
CONTINUOUS
 10
216.2634644079
 20
240.21892018
 11
216.2634644079
 21
208.691056135
  0
LINE
  8
BEZUGSACHSEN
 62
7
  6
CONTINUOUS
 10
216.2634644079
 20
204.21892018
 11
216.2634644079
 21
170.9549881575
  0
LINE
  8
BEZUGSACHSEN
 62
7
  6
CONTINUOUS
 10
220.2634644079
 20
245.0558231246
 11
220.2634644079
 21
244.691056135
  0
LINE
  8
BEZUGSACHSEN
 62
7
  6
CONTINUOUS
 10
220.2634644079
 20
170.9549881575
 11
220.2634644079
 21
204.21892018
  0
LINE
  8
BEZUGSACHSEN
 62
7
  6
CONTINUOUS
 10
220.2634644079
 20
208.691056135
 11
220.2634644079
 21
240.21892018
  0
LINE
  8
BEZUGSACHSEN
 62
7
  6
CONTINUOUS
 10
226.2634644079
 20
245.0558231246
 11
226.2634644079
 21
244.691056135
  0
LINE
  8
BEZUGSACHSEN
 62
7
  6
CONTINUOUS
 10
226.2634644079
 20
240.21892018
 11
226.2634644079
 21
208.691056135
  0
LINE
  8
BEZUGSACHSEN
 62
7
  6
CONTINUOUS
 10
226.2634644079
 20
204.21892018
 11
226.2634644079
 21
170.9549881575
  0
LINE
  8
BEZUGSACHSEN
 62
7
  6
CONTINUOUS
 10
230.2634644079
 20
245.0558231246
 11
230.2634644079
 21
244.691056135
  0
LINE
  8
BEZUGSACHSEN
 62
7
  6
CONTINUOUS
 10
230.2634644079
 20
170.9549881575
 11
230.2634644079
 21
204.21892018
  0
LINE
  8
BEZUGSACHSEN
 62
7
  6
CONTINUOUS
 10
230.2634644079
 20
208.691056135
 11
230.2634644079
 21
240.21892018
  0
LINE
  8
BEZUGSACHSEN
 62
7
  6
CONTINUOUS
 10
236.2634644079
 20
245.0558231246
 11
236.2634644079
 21
244.691056135
  0
LINE
  8
BEZUGSACHSEN
 62
7
  6
CONTINUOUS
 10
236.2634644079
 20
240.21892018
 11
236.2634644079
 21
208.691056135
  0
LINE
  8
BEZUGSACHSEN
 62
7
  6
CONTINUOUS
 10
236.2634644079
 20
204.21892018
 11
236.2634644079
 21
170.9549881575
  0
LINE
  8
BEZUGSACHSEN
 62
7
  6
CONTINUOUS
 10
240.2634644079
 20
245.0558231246
 11
240.2634644079
 21
244.691056135
  0
LINE
  8
BEZUGSACHSEN
 62
7
  6
CONTINUOUS
 10
240.2634644079
 20
170.9549881575
 11
240.2634644079
 21
204.21892018
  0
LINE
  8
BEZUGSACHSEN
 62
7
  6
CONTINUOUS
 10
240.2634644079
 20
208.691056135
 11
240.2634644079
 21
240.21892018
  0
LINE
  8
BEZUGSACHSEN
 62
7
  6
CONTINUOUS
 10
246.2634644079
 20
245.0558231246
 11
246.2634644079
 21
244.691056135
  0
LINE
  8
BEZUGSACHSEN
 62
7
  6
CONTINUOUS
 10
246.2634644079
 20
240.21892018
 11
246.2634644079
 21
208.691056135
  0
LINE
  8
BEZUGSACHSEN
 62
7
  6
CONTINUOUS
 10
246.2634644079
 20
204.21892018
 11
246.2634644079
 21
170.9549881575
  0
LINE
  8
BEZUGSACHSEN
 62
7
  6
CONTINUOUS
 10
250.2634644079
 20
245.0558231246
 11
250.2634644079
 21
244.691056135
  0
LINE
  8
BEZUGSACHSEN
 62
7
  6
CONTINUOUS
 10
250.2634644079
 20
170.9549881575
 11
250.2634644079
 21
204.21892018
  0
LINE
  8
BEZUGSACHSEN
 62
7
  6
CONTINUOUS
 10
250.2634644079
 20
208.691056135
 11
250.2634644079
 21
240.21892018
  0
LINE
  8
BEZUGSACHSEN
 62
7
  6
CONTINUOUS
 10
256.2634644079
 20
245.0558231246
 11
256.2634644079
 21
244.691056135
  0
LINE
  8
BEZUGSACHSEN
 62
7
  6
CONTINUOUS
 10
256.2634644079
 20
240.21892018
 11
256.2634644079
 21
208.691056135
  0
LINE
  8
BEZUGSACHSEN
 62
7
  6
CONTINUOUS
 10
256.2634644079
 20
204.21892018
 11
256.2634644079
 21
170.9549881575
  0
LINE
  8
BEZUGSACHSEN
 62
7
  6
CONTINUOUS
 10
260.2634644079
 20
245.0558231246
 11
260.2634644079
 21
244.691056135
  0
LINE
  8
BEZUGSACHSEN
 62
7
  6
CONTINUOUS
 10
260.2634644079
 20
170.9549881575
 11
260.2634644079
 21
204.21892018
  0
LINE
  8
BEZUGSACHSEN
 62
7
  6
CONTINUOUS
 10
260.2634644079
 20
208.691056135
 11
260.2634644079
 21
240.21892018
  0
LINE
  8
BEZUGSACHSEN
 62
7
  6
CONTINUOUS
 10
266.2634644079
 20
245.0558231246
 11
266.2634644079
 21
244.691056135
  0
LINE
  8
BEZUGSACHSEN
 62
7
  6
CONTINUOUS
 10
266.2634644079
 20
240.21892018
 11
266.2634644079
 21
208.691056135
  0
LINE
  8
BEZUGSACHSEN
 62
7
  6
CONTINUOUS
 10
266.2634644079
 20
204.21892018
 11
266.2634644079
 21
170.9549881575
  0
LINE
  8
BEZUGSACHSEN
 62
7
  6
CONTINUOUS
 10
270.2634644079
 20
245.0558231246
 11
270.2634644079
 21
244.691056135
  0
LINE
  8
BEZUGSACHSEN
 62
7
  6
CONTINUOUS
 10
270.2634644079
 20
170.9549881575
 11
270.2634644079
 21
204.21892018
  0
LINE
  8
BEZUGSACHSEN
 62
7
  6
CONTINUOUS
 10
270.2634644079
 20
208.691056135
 11
270.2634644079
 21
240.21892018
  0
LINE
  8
BEZUGSACHSEN
 62
7
  6
CONTINUOUS
 10
276.2634644079
 20
245.0558231246
 11
276.2634644079
 21
244.691056135
  0
LINE
  8
BEZUGSACHSEN
 62
7
  6
CONTINUOUS
 10
276.2634644079
 20
240.21892018
 11
276.2634644079
 21
208.691056135
  0
LINE
  8
BEZUGSACHSEN
 62
7
  6
CONTINUOUS
 10
276.2634644079
 20
204.21892018
 11
276.2634644079
 21
170.9549881575
  0
LINE
  8
BEZUGSACHSEN
 62
9
  6
CONTINUOUS
 10
317.223409828
 20
242.7351752206
 11
309.3035189877
 21
242.7351752206
  0
LINE
  8
BEZUGSACHSEN
 62
9
  6
CONTINUOUS
 10
307.223409828
 20
242.7351752206
 11
299.3035189877
 21
242.7351752206
  0
LINE
  8
BEZUGSACHSEN
 62
9
  6
CONTINUOUS
 10
297.223409828
 20
242.7351752206
 11
289.3035189877
 21
242.7351752206
  0
LINE
  8
BEZUGSACHSEN
 62
9
  6
CONTINUOUS
 10
287.223409828
 20
242.7351752206
 11
279.3035189877
 21
242.7351752206
  0
LINE
  8
BEZUGSACHSEN
 62
9
  6
CONTINUOUS
 10
277.223409828
 20
242.7351752206
 11
269.3035189877
 21
242.7351752206
  0
LINE
  8
BEZUGSACHSEN
 62
9
  6
CONTINUOUS
 10
267.223409828
 20
242.7351752206
 11
259.3035189877
 21
242.7351752206
  0
LINE
  8
BEZUGSACHSEN
 62
9
  6
CONTINUOUS
 10
257.223409828
 20
242.7351752206
 11
249.3035189877
 21
242.7351752206
  0
LINE
  8
BEZUGSACHSEN
 62
9
  6
CONTINUOUS
 10
247.223409828
 20
242.7351752206
 11
239.3035189877
 21
242.7351752206
  0
LINE
  8
BEZUGSACHSEN
 62
9
  6
CONTINUOUS
 10
237.223409828
 20
242.7351752206
 11
229.3035189877
 21
242.7351752206
  0
LINE
  8
BEZUGSACHSEN
 62
9
  6
CONTINUOUS
 10
227.223409828
 20
242.7351752206
 11
219.3035189877
 21
242.7351752206
  0
LINE
  8
BEZUGSACHSEN
 62
9
  6
CONTINUOUS
 10
217.223409828
 20
242.7351752206
 11
209.3035189877
 21
242.7351752206
  0
LINE
  8
BEZUGSACHSEN
 62
9
  6
CONTINUOUS
 10
207.223409828
 20
242.7351752206
 11
199.3035189877
 21
242.7351752206
  0
LINE
  8
BEZUGSACHSEN
 62
9
  6
CONTINUOUS
 10
197.223409828
 20
242.7351752206
 11
189.3035189877
 21
242.7351752206
  0
LINE
  8
BEZUGSACHSEN
 62
9
  6
CONTINUOUS
 10
187.223409828
 20
242.7351752206
 11
179.3035189877
 21
242.7351752206
  0
LINE
  8
BEZUGSACHSEN
 62
9
  6
CONTINUOUS
 10
177.223409828
 20
242.7351752206
 11
169.3035189877
 21
242.7351752206
  0
LINE
  8
BEZUGSACHSEN
 62
9
  6
CONTINUOUS
 10
167.223409828
 20
242.7351752206
 11
159.3035189877
 21
242.7351752206
  0
LINE
  8
BEZUGSACHSEN
 62
9
  6
CONTINUOUS
 10
316.5901909323
 20
243.5955398751
 11
309.9367378835
 21
243.5955398751
  0
LINE
  8
BEZUGSACHSEN
 62
9
  6
CONTINUOUS
 10
306.5901909323
 20
243.5955398751
 11
299.9367378835
 21
243.5955398751
  0
LINE
  8
BEZUGSACHSEN
 62
9
  6
CONTINUOUS
 10
296.5901909323
 20
243.5955398751
 11
289.9367378835
 21
243.5955398751
  0
LINE
  8
BEZUGSACHSEN
 62
9
  6
CONTINUOUS
 10
286.5901909323
 20
243.5955398751
 11
279.9367378835
 21
243.5955398751
  0
LINE
  8
BEZUGSACHSEN
 62
9
  6
CONTINUOUS
 10
276.5901909323
 20
243.5955398751
 11
269.9367378835
 21
243.5955398751
  0
LINE
  8
BEZUGSACHSEN
 62
9
  6
CONTINUOUS
 10
266.5901909323
 20
243.5955398751
 11
259.9367378835
 21
243.5955398751
  0
LINE
  8
BEZUGSACHSEN
 62
9
  6
CONTINUOUS
 10
256.5901909323
 20
243.5955398751
 11
249.9367378835
 21
243.5955398751
  0
LINE
  8
BEZUGSACHSEN
 62
9
  6
CONTINUOUS
 10
246.5901909323
 20
243.5955398751
 11
239.9367378835
 21
243.5955398751
  0
LINE
  8
BEZUGSACHSEN
 62
9
  6
CONTINUOUS
 10
236.5901909323
 20
243.5955398751
 11
229.9367378835
 21
243.5955398751
  0
LINE
  8
BEZUGSACHSEN
 62
9
  6
CONTINUOUS
 10
226.5901909323
 20
243.5955398751
 11
219.9367378835
 21
243.5955398751
  0
LINE
  8
BEZUGSACHSEN
 62
9
  6
CONTINUOUS
 10
216.5901909323
 20
243.5955398751
 11
209.9367378835
 21
243.5955398751
  0
LINE
  8
BEZUGSACHSEN
 62
9
  6
CONTINUOUS
 10
206.5901909323
 20
243.5955398751
 11
199.9367378835
 21
243.5955398751
  0
LINE
  8
BEZUGSACHSEN
 62
9
  6
CONTINUOUS
 10
196.5901909323
 20
243.5955398751
 11
189.9367378835
 21
243.5955398751
  0
LINE
  8
BEZUGSACHSEN
 62
9
  6
CONTINUOUS
 10
186.5901909323
 20
243.5955398751
 11
179.9367378835
 21
243.5955398751
  0
LINE
  8
BEZUGSACHSEN
 62
9
  6
CONTINUOUS
 10
176.5901909323
 20
243.5955398751
 11
169.9367378835
 21
243.5955398751
  0
LINE
  8
BEZUGSACHSEN
 62
9
  6
CONTINUOUS
 10
166.5901909323
 20
243.5955398751
 11
159.9367378835
 21
243.5955398751
  0
LINE
  8
0
 62
7
  6
CONTINUOUS
 10
159.7634644079
 20
245.0558231246
 11
318.263464407
 21
245.0558231246
  0
LINE
  8
0
 62
9
  6
CONTINUOUS
 10
318.263464407
 20
245.4558231246
 11
159.7634644079
 21
245.4558231246
  0
LINE
  8
BEZUGSACHSEN
 62
7
  6
CONTINUOUS
 10
280.2634644079
 20
245.0558231246
 11
280.2634644079
 21
244.691056135
  0
LINE
  8
BEZUGSACHSEN
 62
7
  6
CONTINUOUS
 10
280.2634644079
 20
170.9549881575
 11
280.2634644079
 21
204.21892018
  0
LINE
  8
BEZUGSACHSEN
 62
7
  6
CONTINUOUS
 10
280.2634644079
 20
208.691056135
 11
280.2634644079
 21
240.21892018
  0
LINE
  8
0
 62
9
  6
CONTINUOUS
 10
318.263464407
 20
251.9549881575
 11
159.7634644079
 21
251.9549881575
  0
LINE
  8
0
 62
7
  6
CONTINUOUS
 10
318.263464407
 20
252.9549881575
 11
159.7634644079
 21
252.9549881575
  0
LINE
  8
BEZUGSACHSEN
 62
7
  6
CONTINUOUS
 10
286.2634644079
 20
245.0558231246
 11
286.2634644079
 21
244.691056135
  0
LINE
  8
BEZUGSACHSEN
 62
7
  6
CONTINUOUS
 10
286.2634644079
 20
240.21892018
 11
286.2634644079
 21
208.691056135
  0
LINE
  8
BEZUGSACHSEN
 62
7
  6
CONTINUOUS
 10
286.2634644079
 20
204.21892018
 11
286.2634644079
 21
170.9549881575
  0
LINE
  8
0
 62
2
  6
CONTINUOUS
 10
322.7634644079
 20
257.4549881575
 11
313.7634644079
 21
257.4549881575
  0
LINE
  8
0
 62
2
  6
CONTINUOUS
 10
322.7634644079
 20
258.2049881575
 11
313.7634644079
 21
258.2049881575
  0
LINE
  8
BEZUGSACHSEN
 62
7
  6
CONTINUOUS
 10
290.2634644079
 20
245.0558231246
 11
290.2634644079
 21
244.691056135
  0
LINE
  8
BEZUGSACHSEN
 62
7
  6
CONTINUOUS
 10
290.2634644079
 20
170.9549881575
 11
290.2634644079
 21
204.21892018
  0
LINE
  8
BEZUGSACHSEN
 62
7
  6
CONTINUOUS
 10
290.2634644079
 20
208.691056135
 11
290.2634644079
 21
240.21892018
  0
LINE
  8
BEZUGSACHSEN
 62
7
  6
CONTINUOUS
 10
296.2634644079
 20
245.0558231246
 11
296.2634644079
 21
244.691056135
  0
LINE
  8
BEZUGSACHSEN
 62
7
  6
CONTINUOUS
 10
296.2634644079
 20
240.21892018
 11
296.2634644079
 21
208.691056135
  0
LINE
  8
BEZUGSACHSEN
 62
7
  6
CONTINUOUS
 10
296.2634644079
 20
204.21892018
 11
296.2634644079
 21
170.9549881575
  0
LINE
  8
BEZUGSACHSEN
 62
7
  6
CONTINUOUS
 10
300.2634644079
 20
245.0558231246
 11
300.2634644079
 21
244.691056135
  0
LINE
  8
BEZUGSACHSEN
 62
7
  6
CONTINUOUS
 10
300.2634644079
 20
170.9549881575
 11
300.2634644079
 21
204.21892018
  0
LINE
  8
BEZUGSACHSEN
 62
7
  6
CONTINUOUS
 10
300.2634644079
 20
208.691056135
 11
300.2634644079
 21
240.21892018
  0
LINE
  8
BEZUGSACHSEN
 62
7
  6
CONTINUOUS
 10
306.2634644079
 20
245.0558231246
 11
306.2634644079
 21
244.691056135
  0
LINE
  8
BEZUGSACHSEN
 62
7
  6
CONTINUOUS
 10
306.2634644079
 20
240.21892018
 11
306.2634644079
 21
208.691056135
  0
LINE
  8
BEZUGSACHSEN
 62
7
  6
CONTINUOUS
 10
306.2634644079
 20
204.21892018
 11
306.2634644079
 21
170.9549881575
  0
LINE
  8
BEZUGSACHSEN
 62
7
  6
CONTINUOUS
 10
310.2634644079
 20
245.0558231246
 11
310.2634644079
 21
244.691056135
  0
LINE
  8
BEZUGSACHSEN
 62
7
  6
CONTINUOUS
 10
310.2634644079
 20
170.9549881575
 11
310.2634644079
 21
204.21892018
  0
LINE
  8
BEZUGSACHSEN
 62
7
  6
CONTINUOUS
 10
310.2634644079
 20
208.691056135
 11
310.2634644079
 21
240.21892018
  0
LINE
  8
BEZUGSACHSEN
 62
7
  6
CONTINUOUS
 10
316.2634644079
 20
245.0558231246
 11
316.2634644079
 21
244.691056135
  0
LINE
  8
BEZUGSACHSEN
 62
7
  6
CONTINUOUS
 10
316.2634644079
 20
240.21892018
 11
316.2634644079
 21
208.691056135
  0
LINE
  8
BEZUGSACHSEN
 62
7
  6
CONTINUOUS
 10
316.2634644079
 20
204.21892018
 11
316.2634644079
 21
170.9549881575
  0
LINE
  8
DEFAULT_1
 62
2
  6
CENTER
 10
318.2634644079
 20
142.7049881575
 11
318.2634644079
 21
262.7049881575
  0
LINE
  8
KONSTRUKTIONSELEMENTE
 62
7
  6
CONTINUOUS
 10
62.3747269837
 20
56.2463057245
 11
62.3747269837
 21
58.1463057245
  0
LINE
  8
BEZUGSACHSEN
 62
7
  6
CONTINUOUS
 10
62.3747269837
 20
79.3463057245
 11
62.3747269837
 21
81.2463057245
  0
LINE
  8
KONSTRUKTIONSELEMENTE
 62
9
  6
CONTINUOUS
 10
62.7080603171
 20
58.1463057245
 11
62.7080603171
 21
56.2463057245
  0
LINE
  8
BEZUGSACHSEN
 62
9
  6
CONTINUOUS
 10
62.7080603171
 20
79.3463057245
 11
62.7080603171
 21
81.2463057245
  0
LINE
  8
BEZUGSACHSEN
 62
7
  6
CONTINUOUS
 10
62.8747269837
 20
81.2463057245
 11
62.8747269837
 21
71.9963057245
  0
LINE
  8
KONSTRUKTIONSELEMENTE
 62
7
  6
CONTINUOUS
 10
62.8747269837
 20
56.2463057245
 11
62.8747269837
 21
57.7463057245
  0
LINE
  8
0
 62
7
  6
CONTINUOUS
 10
62.8747269837
 20
57.7463057245
 11
62.8747269837
 21
71.9963057245
  0
POLYLINE
  8
KONSTRUKTIONSELEMENTE
 62
7
  6
CONTINUOUS
 66
1
 70
0
  0
VERTEX
  8
KONSTRUKTIONSELEMENTE
 62
7
  6
CONTINUOUS
 10
62.4156679911
 20
58.2367297023
  0
VERTEX
  8
KONSTRUKTIONSELEMENTE
 62
7
  6
CONTINUOUS
 10
62.4102621983
 20
58.2240994164
  0
VERTEX
  8
KONSTRUKTIONSELEMENTE
 62
7
  6
CONTINUOUS
 10
62.405188768
 20
58.21244302
  0
VERTEX
  8
KONSTRUKTIONSELEMENTE
 62
7
  6
CONTINUOUS
 10
62.4004358525
 20
58.2017614738
  0
VERTEX
  8
KONSTRUKTIONSELEMENTE
 62
7
  6
CONTINUOUS
 10
62.3960389947
 20
58.1920521998
  0
VERTEX
  8
KONSTRUKTIONSELEMENTE
 62
7
  6
CONTINUOUS
 10
62.3920276278
 20
58.1833156328
  0
SEQEND
  0
POLYLINE
  8
KONSTRUKTIONSELEMENTE
 62
7
  6
CONTINUOUS
 66
1
 70
0
  0
VERTEX
  8
KONSTRUKTIONSELEMENTE
 62
7
  6
CONTINUOUS
 10
62.3765471051
 20
58.1504013085
  0
VERTEX
  8
KONSTRUKTIONSELEMENTE
 62
7
  6
CONTINUOUS
 10
62.3754873474
 20
58.1481213055
  0
VERTEX
  8
KONSTRUKTIONSELEMENTE
 62
7
  6
CONTINUOUS
 10
62.3748836573
 20
58.1467583894
  0
VERTEX
  8
KONSTRUKTIONSELEMENTE
 62
7
  6
CONTINUOUS
 10
62.3747269525
 20
58.1463185543
  0
SEQEND
  0
LINE
  8
KONSTRUKTIONSELEMENTE
 62
7
  6
CONTINUOUS
 10
62.3920276278
 20
58.1833156328
 11
62.3851955132
 21
58.1686811679
  0
LINE
  8
KONSTRUKTIONSELEMENTE
 62
7
  6
CONTINUOUS
 10
62.3851955132
 20
58.1686811679
 11
62.3765471051
 21
58.1504013085
  0
POLYLINE
  8
BEZUGSACHSEN
 62
7
  6
CONTINUOUS
 66
1
 70
0
  0
VERTEX
  8
BEZUGSACHSEN
 62
7
  6
CONTINUOUS
 10
62.3851955132
 20
79.3239302811
  0
VERTEX
  8
BEZUGSACHSEN
 62
7
  6
CONTINUOUS
 10
62.3765471051
 20
79.3422101405
  0
VERTEX
  8
BEZUGSACHSEN
 62
7
  6
CONTINUOUS
 10
62.3754873474
 20
79.3444901435
  0
VERTEX
  8
BEZUGSACHSEN
 62
7
  6
CONTINUOUS
 10
62.3748836573
 20
79.3458530596
  0
VERTEX
  8
BEZUGSACHSEN
 62
7
  6
CONTINUOUS
 10
62.3747269525
 20
79.3462928947
  0
SEQEND
  0
POLYLINE
  8
BEZUGSACHSEN
 62
7
  6
CONTINUOUS
 66
1
 70
0
  0
VERTEX
  8
BEZUGSACHSEN
 62
7
  6
CONTINUOUS
 10
62.4156679911
 20
79.2558817466
  0
VERTEX
  8
BEZUGSACHSEN
 62
7
  6
CONTINUOUS
 10
62.4102621983
 20
79.2685120325
  0
VERTEX
  8
BEZUGSACHSEN
 62
7
  6
CONTINUOUS
 10
62.405188768
 20
79.280168429
  0
VERTEX
  8
BEZUGSACHSEN
 62
7
  6
CONTINUOUS
 10
62.4004358525
 20
79.2908499751
  0
VERTEX
  8
BEZUGSACHSEN
 62
7
  6
CONTINUOUS
 10
62.3960389947
 20
79.3005592492
  0
VERTEX
  8
BEZUGSACHSEN
 62
7
  6
CONTINUOUS
 10
62.3920276278
 20
79.3092958161
  0
VERTEX
  8
BEZUGSACHSEN
 62
7
  6
CONTINUOUS
 10
62.3851955132
 20
79.3239302811
  0
SEQEND
  0
POLYLINE
  8
KONSTRUKTIONSELEMENTE
 62
7
  6
CONTINUOUS
 66
1
 70
0
  0
VERTEX
  8
KONSTRUKTIONSELEMENTE
 62
7
  6
CONTINUOUS
 10
62.6806097302
 20
58.54249776
  0
VERTEX
  8
KONSTRUKTIONSELEMENTE
 62
7
  6
CONTINUOUS
 10
62.6539549297
 20
58.5237908394
  0
VERTEX
  8
KONSTRUKTIONSELEMENTE
 62
7
  6
CONTINUOUS
 10
62.6280617869
 20
58.504203731
  0
VERTEX
  8
KONSTRUKTIONSELEMENTE
 62
7
  6
CONTINUOUS
 10
62.6030326878
 20
58.4837540093
  0
VERTEX
  8
KONSTRUKTIONSELEMENTE
 62
7
  6
CONTINUOUS
 10
62.5789344693
 20
58.4624494446
  0
VERTEX
  8
KONSTRUKTIONSELEMENTE
 62
7
  6
CONTINUOUS
 10
62.5558396498
 20
58.4403135912
  0
VERTEX
  8
KONSTRUKTIONSELEMENTE
 62
7
  6
CONTINUOUS
 10
62.533819051
 20
58.4173616598
  0
VERTEX
  8
KONSTRUKTIONSELEMENTE
 62
7
  6
CONTINUOUS
 10
62.5129445992
 20
58.3936264511
  0
VERTEX
  8
KONSTRUKTIONSELEMENTE
 62
7
  6
CONTINUOUS
 10
62.4932890363
 20
58.369131716
  0
VERTEX
  8
KONSTRUKTIONSELEMENTE
 62
7
  6
CONTINUOUS
 10
62.474920737
 20
58.343919816
  0
VERTEX
  8
KONSTRUKTIONSELEMENTE
 62
7
  6
CONTINUOUS
 10
62.4579117628
 20
58.3180237754
  0
VERTEX
  8
KONSTRUKTIONSELEMENTE
 62
7
  6
CONTINUOUS
 10
62.4423237958
 20
58.2914953574
  0
VERTEX
  8
KONSTRUKTIONSELEMENTE
 62
7
  6
CONTINUOUS
 10
62.4282532514
 20
58.2644051794
  0
VERTEX
  8
KONSTRUKTIONSELEMENTE
 62
7
  6
CONTINUOUS
 10
62.4156679911
 20
58.2367297023
  0
SEQEND
  0
POLYLINE
  8
BEZUGSACHSEN
 62
7
  6
CONTINUOUS
 66
1
 70
0
  0
VERTEX
  8
BEZUGSACHSEN
 62
7
  6
CONTINUOUS
 10
62.7557869835
 20
78.9014230523
  0
VERTEX
  8
BEZUGSACHSEN
 62
7
  6
CONTINUOUS
 10
62.8023411026
 20
78.8692433891
  0
VERTEX
  8
BEZUGSACHSEN
 62
7
  6
CONTINUOUS
 10
62.8477669048
 20
78.8357353855
  0
VERTEX
  8
BEZUGSACHSEN
 62
7
  6
CONTINUOUS
 10
62.8747269837
 20
78.8144821033
  0
SEQEND
  0
POLYLINE
  8
KONSTRUKTIONSELEMENTE
 62
7
  6
CONTINUOUS
 66
1
 70
0
  0
VERTEX
  8
KONSTRUKTIONSELEMENTE
 62
7
  6
CONTINUOUS
 10
62.6806097302
 20
58.54249776
  0
VERTEX
  8
KONSTRUKTIONSELEMENTE
 62
7
  6
CONTINUOUS
 10
62.7557869835
 20
58.5911883967
  0
VERTEX
  8
KONSTRUKTIONSELEMENTE
 62
7
  6
CONTINUOUS
 10
62.8023411026
 20
58.6233680599
  0
VERTEX
  8
KONSTRUKTIONSELEMENTE
 62
7
  6
CONTINUOUS
 10
62.8477669048
 20
58.6568760635
  0
VERTEX
  8
KONSTRUKTIONSELEMENTE
 62
7
  6
CONTINUOUS
 10
62.8747269837
 20
58.6781293456
  0
SEQEND
  0
POLYLINE
  8
BEZUGSACHSEN
 62
7
  6
CONTINUOUS
 66
1
 70
0
  0
VERTEX
  8
BEZUGSACHSEN
 62
7
  6
CONTINUOUS
 10
62.7557869835
 20
78.9014230523
  0
VERTEX
  8
BEZUGSACHSEN
 62
7
  6
CONTINUOUS
 10
62.6806097302
 20
78.9501136889
  0
VERTEX
  8
BEZUGSACHSEN
 62
7
  6
CONTINUOUS
 10
62.6539549297
 20
78.9688206095
  0
VERTEX
  8
BEZUGSACHSEN
 62
7
  6
CONTINUOUS
 10
62.6280617869
 20
78.9884077179
  0
VERTEX
  8
BEZUGSACHSEN
 62
7
  6
CONTINUOUS
 10
62.6030326878
 20
79.0088574397
  0
VERTEX
  8
BEZUGSACHSEN
 62
7
  6
CONTINUOUS
 10
62.5789344693
 20
79.0301620043
  0
VERTEX
  8
BEZUGSACHSEN
 62
7
  6
CONTINUOUS
 10
62.5558396498
 20
79.0522978577
  0
VERTEX
  8
BEZUGSACHSEN
 62
7
  6
CONTINUOUS
 10
62.533819051
 20
79.0752497892
  0
VERTEX
  8
BEZUGSACHSEN
 62
7
  6
CONTINUOUS
 10
62.5129445992
 20
79.0989849978
  0
VERTEX
  8
BEZUGSACHSEN
 62
7
  6
CONTINUOUS
 10
62.4932890363
 20
79.123479733
  0
VERTEX
  8
BEZUGSACHSEN
 62
7
  6
CONTINUOUS
 10
62.474920737
 20
79.1486916329
  0
VERTEX
  8
BEZUGSACHSEN
 62
7
  6
CONTINUOUS
 10
62.4579117628
 20
79.1745876735
  0
VERTEX
  8
BEZUGSACHSEN
 62
7
  6
CONTINUOUS
 10
62.4423237958
 20
79.2011160915
  0
VERTEX
  8
BEZUGSACHSEN
 62
7
  6
CONTINUOUS
 10
62.4282532514
 20
79.2282062695
  0
VERTEX
  8
BEZUGSACHSEN
 62
7
  6
CONTINUOUS
 10
62.4156679911
 20
79.2558817466
  0
SEQEND
  0
LINE
  8
KONSTRUKTIONSELEMENTE
 62
7
  6
CONTINUOUS
 10
62.3747269837
 20
56.2463057245
 11
284.8747269837
 21
56.2463057245
  0
LINE
  8
KONSTRUKTIONSELEMENTE
 62
9
  6
CONTINUOUS
 10
284.8747269837
 20
57.7463057245
 11
62.8747269837
 21
57.7463057245
  0
LINE
  8
KONSTRUKTIONSELEMENTE
 62
7
  6
CONTINUOUS
 10
62.3747269837
 20
58.1463057245
 11
62.8747269837
 21
58.1463057245
  0
LINE
  8
KONSTRUKTIONSELEMENTE
 62
9
  6
CONTINUOUS
 10
62.8747269837
 20
58.2367297023
 11
62.4156679911
 21
58.2367297023
  0
LINE
  8
0
 62
7
  6
CONTINUOUS
 10
265.1247269837
 20
65.4963057245
 11
257.6247269837
 21
65.4963057245
  0
LINE
  8
0
 62
7
  6
CONTINUOUS
 10
215.1247269837
 20
65.4963057245
 11
207.6247269837
 21
65.4963057245
  0
LINE
  8
0
 62
7
  6
CONTINUOUS
 10
165.1247269837
 20
65.4963057245
 11
157.6247269837
 21
65.4963057245
  0
LINE
  8
0
 62
7
  6
CONTINUOUS
 10
115.1247269837
 20
65.4963057245
 11
107.6247269837
 21
65.4963057245
  0
LINE
  8
0
 62
7
  6
CONTINUOUS
 10
62.8747269837
 20
65.4963057245
 11
65.1247269837
 21
65.4963057245
  0
LINE
  8
0
 62
7
  6
CONTINUOUS
 10
284.8747269837
 20
66.4963057245
 11
284.6247269837
 21
66.4963057245
  0
LINE
  8
0
 62
7
  6
CONTINUOUS
 10
238.1247269837
 20
66.4963057245
 11
234.6247269837
 21
66.4963057245
  0
LINE
  8
0
 62
7
  6
CONTINUOUS
 10
188.1247269837
 20
66.4963057245
 11
184.6247269837
 21
66.4963057245
  0
LINE
  8
0
 62
7
  6
CONTINUOUS
 10
138.1247269837
 20
66.4963057245
 11
134.6247269837
 21
66.4963057245
  0
LINE
  8
0
 62
7
  6
CONTINUOUS
 10
88.1247269837
 20
66.4963057245
 11
84.6247269837
 21
66.4963057245
  0
LINE
  8
AXIS
 62
2
  6
CENTER
 10
55.9848498221
 20
68.7463057245
 11
287.8747269837
 21
68.7463057245
  0
LINE
  8
BEZUGSACHSEN
 62
7
  6
CONTINUOUS
 10
284.8747269837
 20
70.9963057245
 11
284.6247269837
 21
70.9963057245
  0
LINE
  8
BEZUGSACHSEN
 62
7
  6
CONTINUOUS
 10
238.1247269837
 20
70.9963057245
 11
234.6247269837
 21
70.9963057245
  0
LINE
  8
BEZUGSACHSEN
 62
7
  6
CONTINUOUS
 10
188.1247269837
 20
70.9963057245
 11
184.6247269837
 21
70.9963057245
  0
LINE
  8
BEZUGSACHSEN
 62
7
  6
CONTINUOUS
 10
138.1247269837
 20
70.9963057245
 11
134.6247269837
 21
70.9963057245
  0
LINE
  8
BEZUGSACHSEN
 62
7
  6
CONTINUOUS
 10
88.1247269837
 20
70.9963057245
 11
84.6247269837
 21
70.9963057245
  0
LINE
  8
BEZUGSACHSEN
 62
7
  6
CONTINUOUS
 10
265.1247269837
 20
71.9963057245
 11
257.6247269837
 21
71.9963057245
  0
LINE
  8
BEZUGSACHSEN
 62
7
  6
CONTINUOUS
 10
215.1247269837
 20
71.9963057245
 11
207.6247269837
 21
71.9963057245
  0
LINE
  8
BEZUGSACHSEN
 62
7
  6
CONTINUOUS
 10
165.1247269837
 20
71.9963057245
 11
157.6247269837
 21
71.9963057245
  0
LINE
  8
BEZUGSACHSEN
 62
7
  6
CONTINUOUS
 10
115.1247269837
 20
71.9963057245
 11
107.6247269837
 21
71.9963057245
  0
LINE
  8
BEZUGSACHSEN
 62
7
  6
CONTINUOUS
 10
62.8747269837
 20
71.9963057245
 11
65.1247269837
 21
71.9963057245
  0
LINE
  8
BEZUGSACHSEN
 62
9
  6
CONTINUOUS
 10
62.8747269837
 20
79.2558817466
 11
62.4156679911
 21
79.2558817466
  0
LINE
  8
BEZUGSACHSEN
 62
7
  6
CONTINUOUS
 10
62.3747269837
 20
79.3463057245
 11
62.8747269837
 21
79.3463057245
  0
LINE
  8
BEZUGSACHSEN
 62
9
  6
CONTINUOUS
 10
284.8747269837
 20
79.7463057245
 11
62.8747269837
 21
79.7463057245
  0
LINE
  8
BEZUGSACHSEN
 62
7
  6
CONTINUOUS
 10
62.3747269837
 20
81.2463057245
 11
284.8747269837
 21
81.2463057245
  0
LINE
  8
0
 62
7
  6
CONTINUOUS
 10
284.8747269837
 20
70.9963057245
 11
284.8747269837
 21
57.7463057245
  0
LINE
  8
KONSTRUKTIONSELEMENTE
 62
7
  6
CONTINUOUS
 10
284.8747269837
 20
57.7463057245
 11
284.8747269837
 21
56.2463057245
  0
LINE
  8
BEZUGSACHSEN
 62
7
  6
CONTINUOUS
 10
284.8747269837
 20
70.9963057245
 11
284.8747269837
 21
81.2463057245
  0
CIRCLE
  8
0
 62
7
  6
CONTINUOUS
 10
13.0607311753
 20
13.1726449407
 40
4.75
  0
ARC
  8
0
 62
7
  6
CONTINUOUS
 10
13.0607311753
 20
13.1726449407
 40
3.99
 50
133.8616975242
 51
226.1383024758
  0
ARC
  8
0
 62
7
  6
CONTINUOUS
 10
13.0607311753
 20
13.1726449407
 40
3.99
 50
313.8616975242
 51
46.1383024758
  0
ARC
  8
0
 62
7
  6
CONTINUOUS
 10
13.0607311753
 20
10.9876449407
 40
2.85
 50
180.0
 51
194.0491186126
  0
ARC
  8
0
 62
7
  6
CONTINUOUS
 10
13.0607311753
 20
15.3576449407
 40
2.85
 50
165.9508813874
 51
180.0
  0
ARC
  8
0
 62
7
  6
CONTINUOUS
 10
13.0607311753
 20
10.9876449407
 40
2.85
 50
345.9508813874
 51
50.0554948102
  0
ARC
  8
0
 62
7
  6
CONTINUOUS
 10
13.0607311753
 20
15.3576449407
 40
2.85
 50
309.9445051898
 51
14.0491186126
  0
ARC
  8
0
 62
7
  6
CONTINUOUS
 10
13.0607311753
 20
10.9876449407
 40
1.52
 50
180.0
 51
90.0
  0
ARC
  8
0
 62
7
  6
CONTINUOUS
 10
13.0607311753
 20
15.3576449407
 40
1.52
 50
270.0
 51
180.0
  0
ARC
  8
BEZUGSACHSEN
 62
7
  6
CONTINUOUS
 10
63.1545454798
 20
153.9549881575
 40
1.5
 50
180.0
 51
270.0
  0
ARC
  8
BEZUGSACHSEN
 62
7
  6
CONTINUOUS
 10
64.0545454798
 20
154.8549881575
 40
0.5
 50
221.7562202866
 51
270.0
  0
ARC
  8
BEZUGSACHSEN
 62
7
  6
CONTINUOUS
 10
64.0545454798
 20
154.8549881575
 40
0.5
 50
180.0
 51
195.1130430839
  0
ARC
  8
BEZUGSACHSEN
 62
7
  6
CONTINUOUS
 10
64.9325188636
 20
245.6549881575
 40
5.0
 50
104.1220639661
 51
111.5289044056
  0
ARC
  8
BEZUGSACHSEN
 62
7
  6
CONTINUOUS
 10
64.5715630267
 20
248.7688136355
 40
3.0
 50
299.1580672368
 51
325.0
  0
ARC
  8
BEZUGSACHSEN
 62
7
  6
CONTINUOUS
 10
65.5545454798
 20
248.0805219119
 40
1.8
 50
325.0
 51
360.0
  0
ARC
  8
BEZUGSACHSEN
 62
7
  6
CONTINUOUS
 10
65.5545454798
 20
249.2549881575
 40
1.8
 50
0.0
 51
90.0
  0
ARC
  8
BEZUGSACHSEN
 62
7
  6
CONTINUOUS
 10
65.0088295782
 20
249.2549881575
 40
1.8
 50
90.0
 51
136.0660915803
  0
ARC
  8
BEZUGSACHSEN
 62
7
  6
CONTINUOUS
 10
63.1545454798
 20
242.7351752206
 40
1.5
 50
145.0
 51
180.0
  0
ARC
  8
0
 62
7
  6
CONTINUOUS
 10
62.6545454798
 20
251.9549881575
 40
1.0
 50
90.0
 51
180.0
  0
ARC
  8
BEZUGSACHSEN
 62
7
  6
CONTINUOUS
 10
63.3545454798
 20
249.6549881575
 40
0.7
 50
111.5289044056
 51
280.0
  0
ARC
  8
BEZUGSACHSEN
 62
7
  6
CONTINUOUS
 10
64.4545454798
 20
248.4273505797
 40
0.7
 50
325.0
 51
100.0
  0
ARC
  8
0
 62
7
  6
CONTINUOUS
 10
64.3545454798
 20
248.4549881575
 40
0.5
 50
321.0
 51
141.0
  0
ARC
  8
BEZUGSACHSEN
 62
7
  6
CONTINUOUS
 10
64.0545454798
 20
242.4514063106
 40
0.5
 50
145.0
 51
180.0
  0
ARC
  8
0
 62
7
  6
CONTINUOUS
 10
63.0545454798
 20
248.2797360102
 40
0.4
 50
180.0
 51
321.0
  0
ARC
  8
0
 62
7
  6
CONTINUOUS
 10
62.0545454798
 20
245.4558231246
 40
0.4
 50
180.0
 51
321.0
  0
ARC
  8
0
 62
7
  6
CONTINUOUS
 10
62.8545454798
 20
251.7549881575
 40
0.2
 50
90.0
 51
180.0
  0
ARC
  8
0
 62
7
  6
CONTINUOUS
 10
62.9545454798
 20
250.6549881575
 40
0.2
 50
0.0
 51
90.0
  0
ARC
  8
0
 62
7
  6
CONTINUOUS
 10
62.9545454798
 20
249.1549881575
 40
0.2
 50
270.0
 51
360.0
  0
ARC
  8
0
 62
7
  6
CONTINUOUS
 10
62.7545454798
 20
248.8549881575
 40
0.1
 50
90.0
 51
180.0
  0
ARC
  8
0
 62
7
  6
CONTINUOUS
 10
62.7545454798
 20
250.9549881575
 40
0.1
 50
180.0
 51
270.0
  0
ARC
  8
KONSTRUKTIONSELEMENTE
 62
7
  6
CONTINUOUS
 10
85.1545454798
 20
153.9549881575
 40
1.5
 50
270.0
 51
360.0
  0
ARC
  8
KONSTRUKTIONSELEMENTE
 62
7
  6
CONTINUOUS
 10
84.2545454798
 20
154.8549881575
 40
0.5
 50
270.0
 51
318.2437797134
  0
ARC
  8
KONSTRUKTIONSELEMENTE
 62
7
  6
CONTINUOUS
 10
84.2545454798
 20
154.8549881575
 40
0.5
 50
344.8869569161
 51
360.0
  0
ARC
  8
KONSTRUKTIONSELEMENTE
 62
7
  6
CONTINUOUS
 10
83.376572096
 20
245.6549881575
 40
5.0
 50
68.4710955944
 51
75.8779360339
  0
ARC
  8
KONSTRUKTIONSELEMENTE
 62
7
  6
CONTINUOUS
 10
83.737527933
 20
248.7688136355
 40
3.0
 50
215.0
 51
240.8419327632
  0
ARC
  8
KONSTRUKTIONSELEMENTE
 62
7
  6
CONTINUOUS
 10
82.7545454798
 20
248.0805219119
 40
1.8
 50
180.0
 51
215.0
  0
ARC
  8
KONSTRUKTIONSELEMENTE
 62
7
  6
CONTINUOUS
 10
82.7545454798
 20
249.2549881575
 40
1.8
 50
90.0
 51
180.0
  0
ARC
  8
KONSTRUKTIONSELEMENTE
 62
7
  6
CONTINUOUS
 10
83.3002613815
 20
249.2549881575
 40
1.8
 50
43.9339084197
 51
90.0
  0
ARC
  8
KONSTRUKTIONSELEMENTE
 62
7
  6
CONTINUOUS
 10
85.1545454798
 20
242.7351752206
 40
1.5
 50
0.0
 51
35.0
  0
ARC
  8
KONSTRUKTIONSELEMENTE
 62
7
  6
CONTINUOUS
 10
85.6545454798
 20
251.9549881575
 40
1.0
 50
0.0
 51
90.0
  0
ARC
  8
KONSTRUKTIONSELEMENTE
 62
7
  6
CONTINUOUS
 10
84.9545454798
 20
249.6549881575
 40
0.7
 50
260.0
 51
68.4710955944
  0
ARC
  8
KONSTRUKTIONSELEMENTE
 62
7
  6
CONTINUOUS
 10
83.8545454798
 20
248.4273505797
 40
0.7
 50
80.0
 51
215.0
  0
ARC
  8
KONSTRUKTIONSELEMENTE
 62
7
  6
CONTINUOUS
 10
83.9545454798
 20
248.4549881575
 40
0.5
 50
39.0
 51
219.0
  0
ARC
  8
KONSTRUKTIONSELEMENTE
 62
7
  6
CONTINUOUS
 10
84.2545454798
 20
242.4514063106
 40
0.5
 50
0.0
 51
35.0
  0
ARC
  8
KONSTRUKTIONSELEMENTE
 62
7
  6
CONTINUOUS
 10
85.2545454798
 20
248.2797360102
 40
0.4
 50
219.0
 51
360.0
  0
ARC
  8
KONSTRUKTIONSELEMENTE
 62
7
  6
CONTINUOUS
 10
86.2545454798
 20
245.4558231246
 40
0.4
 50
219.0
 51
360.0
  0
ARC
  8
KONSTRUKTIONSELEMENTE
 62
7
  6
CONTINUOUS
 10
85.4545454798
 20
251.7549881575
 40
0.2
 50
0.0
 51
90.0
  0
ARC
  8
0
 62
7
  6
CONTINUOUS
 10
85.3545454798
 20
250.6549881575
 40
0.2
 50
90.0
 51
180.0
  0
ARC
  8
0
 62
7
  6
CONTINUOUS
 10
85.3545454798
 20
249.1549881575
 40
0.2
 50
180.0
 51
270.0
  0
ARC
  8
0
 62
7
  6
CONTINUOUS
 10
85.5545454798
 20
248.8549881575
 40
0.1
 50
0.0
 51
90.0
  0
ARC
  8
0
 62
7
  6
CONTINUOUS
 10
85.5545454798
 20
250.9549881575
 40
0.1
 50
270.0
 51
360.0
  0
ARC
  8
BEZUGSACHSEN
 62
7
  6
CONTINUOUS
 10
196.7634644079
 20
170.9549881575
 40
0.5
 50
180.0
 51
270.0
  0
ARC
  8
BEZUGSACHSEN
 62
7
  6
CONTINUOUS
 10
189.7634644079
 20
170.9549881575
 40
0.5
 50
270.0
 51
360.0
  0
ARC
  8
BEZUGSACHSEN
 62
7
  6
CONTINUOUS
 10
186.7634644079
 20
170.9549881575
 40
0.5
 50
180.0
 51
270.0
  0
ARC
  8
BEZUGSACHSEN
 62
7
  6
CONTINUOUS
 10
179.7634644079
 20
170.9549881575
 40
0.5
 50
270.0
 51
360.0
  0
ARC
  8
BEZUGSACHSEN
 62
7
  6
CONTINUOUS
 10
176.7634644079
 20
170.9549881575
 40
0.5
 50
180.0
 51
270.0
  0
ARC
  8
BEZUGSACHSEN
 62
7
  6
CONTINUOUS
 10
169.7634644079
 20
170.9549881575
 40
0.5
 50
270.0
 51
360.0
  0
ARC
  8
BEZUGSACHSEN
 62
7
  6
CONTINUOUS
 10
166.7634644079
 20
170.9549881575
 40
0.5
 50
180.0
 51
270.0
  0
ARC
  8
BEZUGSACHSEN
 62
7
  6
CONTINUOUS
 10
159.7634644079
 20
170.9549881575
 40
0.5
 50
270.0
 51
360.0
  0
ARC
  8
BEZUGSACHSEN
 62
7
  6
CONTINUOUS
 10
188.2634644079
 20
204.21892018
 40
2.0
 50
0.0
 51
48.1896851042
  0
ARC
  8
BEZUGSACHSEN
 62
7
  6
CONTINUOUS
 10
188.2634644079
 20
204.21892018
 40
2.0
 50
131.8103148957
 51
180.0
  0
ARC
  8
BEZUGSACHSEN
 62
7
  6
CONTINUOUS
 10
178.2634644079
 20
204.21892018
 40
2.0
 50
0.0
 51
48.1896851042
  0
ARC
  8
BEZUGSACHSEN
 62
7
  6
CONTINUOUS
 10
178.2634644079
 20
204.21892018
 40
2.0
 50
131.8103148957
 51
180.0
  0
ARC
  8
BEZUGSACHSEN
 62
7
  6
CONTINUOUS
 10
168.2634644079
 20
204.21892018
 40
2.0
 50
0.0
 51
48.1896851042
  0
ARC
  8
BEZUGSACHSEN
 62
7
  6
CONTINUOUS
 10
168.2634644079
 20
204.21892018
 40
2.0
 50
131.8103148957
 51
180.0
  0
ARC
  8
BEZUGSACHSEN
 62
7
  6
CONTINUOUS
 10
158.2634644079
 20
204.21892018
 40
2.0
 50
0.0
 51
48.1896851042
  0
ARC
  8
BEZUGSACHSEN
 62
7
  6
CONTINUOUS
 10
196.2634644079
 20
206.4549881575
 40
1.0
 50
311.8103148958
 51
48.1896851043
  0
ARC
  8
BEZUGSACHSEN
 62
7
  6
CONTINUOUS
 10
190.2634644079
 20
206.4549881575
 40
1.0
 50
131.8103148958
 51
228.1896851043
  0
ARC
  8
BEZUGSACHSEN
 62
7
  6
CONTINUOUS
 10
186.2634644079
 20
206.4549881575
 40
1.0
 50
311.8103148958
 51
48.1896851043
  0
ARC
  8
BEZUGSACHSEN
 62
7
  6
CONTINUOUS
 10
180.2634644079
 20
206.4549881575
 40
1.0
 50
131.8103148958
 51
228.1896851043
  0
ARC
  8
BEZUGSACHSEN
 62
7
  6
CONTINUOUS
 10
176.2634644079
 20
206.4549881575
 40
1.0
 50
311.8103148958
 51
48.1896851043
  0
ARC
  8
BEZUGSACHSEN
 62
7
  6
CONTINUOUS
 10
170.2634644079
 20
206.4549881575
 40
1.0
 50
131.8103148958
 51
228.1896851043
  0
ARC
  8
BEZUGSACHSEN
 62
7
  6
CONTINUOUS
 10
166.2634644079
 20
206.4549881575
 40
1.0
 50
311.8103148958
 51
48.1896851043
  0
ARC
  8
BEZUGSACHSEN
 62
7
  6
CONTINUOUS
 10
160.2634644079
 20
206.4549881575
 40
1.0
 50
131.8103148958
 51
228.1896851043
  0
ARC
  8
BEZUGSACHSEN
 62
7
  6
CONTINUOUS
 10
236.7634644079
 20
170.9549881575
 40
0.5
 50
180.0
 51
270.0
  0
ARC
  8
BEZUGSACHSEN
 62
7
  6
CONTINUOUS
 10
229.7634644079
 20
170.9549881575
 40
0.5
 50
270.0
 51
360.0
  0
ARC
  8
BEZUGSACHSEN
 62
7
  6
CONTINUOUS
 10
226.7634644079
 20
170.9549881575
 40
0.5
 50
180.0
 51
270.0
  0
ARC
  8
BEZUGSACHSEN
 62
7
  6
CONTINUOUS
 10
219.7634644079
 20
170.9549881575
 40
0.5
 50
270.0
 51
360.0
  0
ARC
  8
BEZUGSACHSEN
 62
7
  6
CONTINUOUS
 10
216.7634644079
 20
170.9549881575
 40
0.5
 50
180.0
 51
270.0
  0
ARC
  8
BEZUGSACHSEN
 62
7
  6
CONTINUOUS
 10
209.7634644079
 20
170.9549881575
 40
0.5
 50
270.0
 51
360.0
  0
ARC
  8
BEZUGSACHSEN
 62
7
  6
CONTINUOUS
 10
206.7634644079
 20
170.9549881575
 40
0.5
 50
180.0
 51
270.0
  0
ARC
  8
BEZUGSACHSEN
 62
7
  6
CONTINUOUS
 10
199.7634644079
 20
170.9549881575
 40
0.5
 50
270.0
 51
360.0
  0
ARC
  8
BEZUGSACHSEN
 62
7
  6
CONTINUOUS
 10
228.2634644079
 20
204.21892018
 40
2.0
 50
0.0
 51
48.1896851042
  0
ARC
  8
BEZUGSACHSEN
 62
7
  6
CONTINUOUS
 10
228.2634644079
 20
204.21892018
 40
2.0
 50
131.8103148957
 51
180.0
  0
ARC
  8
BEZUGSACHSEN
 62
7
  6
CONTINUOUS
 10
218.2634644079
 20
204.21892018
 40
2.0
 50
0.0
 51
48.1896851042
  0
ARC
  8
BEZUGSACHSEN
 62
7
  6
CONTINUOUS
 10
218.2634644079
 20
204.21892018
 40
2.0
 50
131.8103148958
 51
180.0
  0
ARC
  8
BEZUGSACHSEN
 62
7
  6
CONTINUOUS
 10
208.2634644079
 20
204.21892018
 40
2.0
 50
0.0
 51
48.1896851042
  0
ARC
  8
BEZUGSACHSEN
 62
7
  6
CONTINUOUS
 10
208.2634644079
 20
204.21892018
 40
2.0
 50
131.8103148958
 51
180.0
  0
ARC
  8
BEZUGSACHSEN
 62
7
  6
CONTINUOUS
 10
198.2634644079
 20
204.21892018
 40
2.0
 50
0.0
 51
48.1896851042
  0
ARC
  8
BEZUGSACHSEN
 62
7
  6
CONTINUOUS
 10
198.2634644079
 20
204.21892018
 40
2.0
 50
131.8103148958
 51
180.0
  0
ARC
  8
BEZUGSACHSEN
 62
7
  6
CONTINUOUS
 10
236.2634644079
 20
206.4549881575
 40
1.0
 50
311.8103148959
 51
48.1896851042
  0
ARC
  8
BEZUGSACHSEN
 62
7
  6
CONTINUOUS
 10
230.2634644079
 20
206.4549881575
 40
1.0
 50
131.8103148958
 51
228.1896851043
  0
ARC
  8
BEZUGSACHSEN
 62
7
  6
CONTINUOUS
 10
226.2634644079
 20
206.4549881575
 40
1.0
 50
311.8103148959
 51
48.1896851042
  0
ARC
  8
BEZUGSACHSEN
 62
7
  6
CONTINUOUS
 10
220.2634644079
 20
206.4549881575
 40
1.0
 50
131.8103148958
 51
228.1896851043
  0
ARC
  8
BEZUGSACHSEN
 62
7
  6
CONTINUOUS
 10
216.2634644079
 20
206.4549881575
 40
1.0
 50
311.8103148958
 51
48.1896851043
  0
ARC
  8
BEZUGSACHSEN
 62
7
  6
CONTINUOUS
 10
210.2634644079
 20
206.4549881575
 40
1.0
 50
131.8103148958
 51
228.1896851043
  0
ARC
  8
BEZUGSACHSEN
 62
7
  6
CONTINUOUS
 10
206.2634644079
 20
206.4549881575
 40
1.0
 50
311.8103148958
 51
48.1896851043
  0
ARC
  8
BEZUGSACHSEN
 62
7
  6
CONTINUOUS
 10
200.2634644079
 20
206.4549881575
 40
1.0
 50
131.8103148958
 51
228.1896851043
  0
ARC
  8
BEZUGSACHSEN
 62
7
  6
CONTINUOUS
 10
188.2634644079
 20
208.691056135
 40
2.0
 50
311.8103148958
 51
360.0
  0
ARC
  8
BEZUGSACHSEN
 62
7
  6
CONTINUOUS
 10
188.2634644079
 20
208.691056135
 40
2.0
 50
180.0
 51
228.1896851042
  0
ARC
  8
BEZUGSACHSEN
 62
7
  6
CONTINUOUS
 10
178.2634644079
 20
208.691056135
 40
2.0
 50
311.8103148958
 51
360.0
  0
ARC
  8
BEZUGSACHSEN
 62
7
  6
CONTINUOUS
 10
178.2634644079
 20
208.691056135
 40
2.0
 50
180.0
 51
228.1896851042
  0
ARC
  8
BEZUGSACHSEN
 62
7
  6
CONTINUOUS
 10
168.2634644079
 20
208.691056135
 40
2.0
 50
311.8103148958
 51
360.0
  0
ARC
  8
BEZUGSACHSEN
 62
7
  6
CONTINUOUS
 10
168.2634644079
 20
208.691056135
 40
2.0
 50
180.0
 51
228.1896851042
  0
ARC
  8
BEZUGSACHSEN
 62
7
  6
CONTINUOUS
 10
158.2634644079
 20
208.691056135
 40
2.0
 50
311.8103148958
 51
360.0
  0
ARC
  8
BEZUGSACHSEN
 62
7
  6
CONTINUOUS
 10
188.2634644079
 20
240.21892018
 40
2.0
 50
0.0
 51
48.1896851042
  0
ARC
  8
BEZUGSACHSEN
 62
7
  6
CONTINUOUS
 10
188.2634644079
 20
240.21892018
 40
2.0
 50
131.8103148958
 51
180.0
  0
ARC
  8
BEZUGSACHSEN
 62
7
  6
CONTINUOUS
 10
178.2634644079
 20
240.21892018
 40
2.0
 50
0.0
 51
48.1896851042
  0
ARC
  8
BEZUGSACHSEN
 62
7
  6
CONTINUOUS
 10
178.2634644079
 20
240.21892018
 40
2.0
 50
131.8103148958
 51
180.0
  0
ARC
  8
BEZUGSACHSEN
 62
7
  6
CONTINUOUS
 10
168.2634644079
 20
240.21892018
 40
2.0
 50
0.0
 51
48.1896851042
  0
ARC
  8
BEZUGSACHSEN
 62
7
  6
CONTINUOUS
 10
168.2634644079
 20
240.21892018
 40
2.0
 50
131.8103148958
 51
180.0
  0
ARC
  8
BEZUGSACHSEN
 62
7
  6
CONTINUOUS
 10
158.2634644079
 20
240.21892018
 40
2.0
 50
0.0
 51
48.1896851042
  0
ARC
  8
BEZUGSACHSEN
 62
7
  6
CONTINUOUS
 10
188.2634644079
 20
244.691056135
 40
2.0
 50
311.8103148958
 51
360.0
  0
ARC
  8
BEZUGSACHSEN
 62
7
  6
CONTINUOUS
 10
178.2634644079
 20
244.691056135
 40
2.0
 50
311.8103148958
 51
360.0
  0
ARC
  8
BEZUGSACHSEN
 62
7
  6
CONTINUOUS
 10
188.2634644079
 20
244.691056135
 40
2.0
 50
180.0
 51
228.1896851042
  0
ARC
  8
BEZUGSACHSEN
 62
7
  6
CONTINUOUS
 10
168.2634644079
 20
244.691056135
 40
2.0
 50
311.8103148958
 51
360.0
  0
ARC
  8
BEZUGSACHSEN
 62
7
  6
CONTINUOUS
 10
178.2634644079
 20
244.691056135
 40
2.0
 50
180.0
 51
228.1896851042
  0
ARC
  8
BEZUGSACHSEN
 62
7
  6
CONTINUOUS
 10
158.2634644079
 20
244.691056135
 40
2.0
 50
311.8103148958
 51
360.0
  0
ARC
  8
BEZUGSACHSEN
 62
7
  6
CONTINUOUS
 10
168.2634644079
 20
244.691056135
 40
2.0
 50
180.0
 51
228.1896851042
  0
ARC
  8
BEZUGSACHSEN
 62
7
  6
CONTINUOUS
 10
190.2634644079
 20
242.4549881575
 40
1.0
 50
131.8103148958
 51
228.1896851042
  0
ARC
  8
BEZUGSACHSEN
 62
7
  6
CONTINUOUS
 10
196.2634644079
 20
242.4549881575
 40
1.0
 50
311.8103148958
 51
48.1896851042
  0
ARC
  8
BEZUGSACHSEN
 62
7
  6
CONTINUOUS
 10
180.2634644079
 20
242.4549881575
 40
1.0
 50
131.8103148958
 51
228.1896851043
  0
ARC
  8
BEZUGSACHSEN
 62
7
  6
CONTINUOUS
 10
186.2634644079
 20
242.4549881575
 40
1.0
 50
311.8103148957
 51
48.1896851042
  0
ARC
  8
BEZUGSACHSEN
 62
7
  6
CONTINUOUS
 10
170.2634644079
 20
242.4549881575
 40
1.0
 50
131.8103148958
 51
228.1896851042
  0
ARC
  8
BEZUGSACHSEN
 62
7
  6
CONTINUOUS
 10
176.2634644079
 20
242.4549881575
 40
1.0
 50
311.8103148957
 51
48.1896851042
  0
ARC
  8
BEZUGSACHSEN
 62
7
  6
CONTINUOUS
 10
160.2634644079
 20
242.4549881575
 40
1.0
 50
131.8103148958
 51
228.1896851042
  0
ARC
  8
BEZUGSACHSEN
 62
7
  6
CONTINUOUS
 10
166.2634644079
 20
242.4549881575
 40
1.0
 50
311.8103148958
 51
48.1896851042
  0
ARC
  8
BEZUGSACHSEN
 62
7
  6
CONTINUOUS
 10
228.2634644079
 20
208.691056135
 40
2.0
 50
311.8103148958
 51
360.0
  0
ARC
  8
BEZUGSACHSEN
 62
7
  6
CONTINUOUS
 10
228.2634644079
 20
208.691056135
 40
2.0
 50
180.0
 51
228.1896851042
  0
ARC
  8
BEZUGSACHSEN
 62
7
  6
CONTINUOUS
 10
218.2634644079
 20
208.691056135
 40
2.0
 50
311.8103148958
 51
360.0
  0
ARC
  8
BEZUGSACHSEN
 62
7
  6
CONTINUOUS
 10
218.2634644079
 20
208.691056135
 40
2.0
 50
180.0
 51
228.1896851042
  0
ARC
  8
BEZUGSACHSEN
 62
7
  6
CONTINUOUS
 10
208.2634644079
 20
208.691056135
 40
2.0
 50
311.8103148958
 51
360.0
  0
ARC
  8
BEZUGSACHSEN
 62
7
  6
CONTINUOUS
 10
208.2634644079
 20
208.691056135
 40
2.0
 50
180.0
 51
228.1896851042
  0
ARC
  8
BEZUGSACHSEN
 62
7
  6
CONTINUOUS
 10
198.2634644079
 20
208.691056135
 40
2.0
 50
311.8103148958
 51
360.0
  0
ARC
  8
BEZUGSACHSEN
 62
7
  6
CONTINUOUS
 10
198.2634644079
 20
208.691056135
 40
2.0
 50
180.0
 51
228.1896851042
  0
ARC
  8
BEZUGSACHSEN
 62
7
  6
CONTINUOUS
 10
208.2634644079
 20
240.21892018
 40
2.0
 50
0.0
 51
48.1896851042
  0
ARC
  8
BEZUGSACHSEN
 62
7
  6
CONTINUOUS
 10
208.2634644079
 20
240.21892018
 40
2.0
 50
131.8103148958
 51
180.0
  0
ARC
  8
BEZUGSACHSEN
 62
7
  6
CONTINUOUS
 10
198.2634644079
 20
240.21892018
 40
2.0
 50
0.0
 51
48.1896851042
  0
ARC
  8
BEZUGSACHSEN
 62
7
  6
CONTINUOUS
 10
198.2634644079
 20
240.21892018
 40
2.0
 50
131.8103148958
 51
180.0
  0
ARC
  8
BEZUGSACHSEN
 62
7
  6
CONTINUOUS
 10
208.2634644079
 20
244.691056135
 40
2.0
 50
311.8103148958
 51
360.0
  0
ARC
  8
BEZUGSACHSEN
 62
7
  6
CONTINUOUS
 10
198.2634644079
 20
244.691056135
 40
2.0
 50
311.8103148958
 51
360.0
  0
ARC
  8
BEZUGSACHSEN
 62
7
  6
CONTINUOUS
 10
208.2634644079
 20
244.691056135
 40
2.0
 50
180.0
 51
228.1896851042
  0
ARC
  8
BEZUGSACHSEN
 62
7
  6
CONTINUOUS
 10
198.2634644079
 20
244.691056135
 40
2.0
 50
180.0
 51
228.1896851042
  0
ARC
  8
BEZUGSACHSEN
 62
7
  6
CONTINUOUS
 10
210.2634644079
 20
242.4549881575
 40
1.0
 50
131.8103148958
 51
228.1896851042
  0
ARC
  8
BEZUGSACHSEN
 62
7
  6
CONTINUOUS
 10
216.2634644079
 20
242.4549881575
 40
1.0
 50
311.8103148958
 51
48.1896851042
  0
ARC
  8
BEZUGSACHSEN
 62
7
  6
CONTINUOUS
 10
200.2634644079
 20
242.4549881575
 40
1.0
 50
131.8103148958
 51
228.1896851042
  0
ARC
  8
BEZUGSACHSEN
 62
7
  6
CONTINUOUS
 10
206.2634644079
 20
242.4549881575
 40
1.0
 50
311.8103148958
 51
48.1896851042
  0
ARC
  8
BEZUGSACHSEN
 62
7
  6
CONTINUOUS
 10
228.2634644079
 20
240.21892018
 40
2.0
 50
0.0
 51
48.1896851042
  0
ARC
  8
BEZUGSACHSEN
 62
7
  6
CONTINUOUS
 10
228.2634644079
 20
240.21892018
 40
2.0
 50
131.8103148958
 51
180.0
  0
ARC
  8
BEZUGSACHSEN
 62
7
  6
CONTINUOUS
 10
218.2634644079
 20
240.21892018
 40
2.0
 50
0.0
 51
48.1896851042
  0
ARC
  8
BEZUGSACHSEN
 62
7
  6
CONTINUOUS
 10
218.2634644079
 20
240.21892018
 40
2.0
 50
131.8103148958
 51
180.0
  0
ARC
  8
BEZUGSACHSEN
 62
7
  6
CONTINUOUS
 10
228.2634644079
 20
244.691056135
 40
2.0
 50
311.8103148958
 51
360.0
  0
ARC
  8
BEZUGSACHSEN
 62
7
  6
CONTINUOUS
 10
218.2634644079
 20
244.691056135
 40
2.0
 50
311.8103148958
 51
360.0
  0
ARC
  8
BEZUGSACHSEN
 62
7
  6
CONTINUOUS
 10
228.2634644079
 20
244.691056135
 40
2.0
 50
180.0
 51
228.1896851042
  0
ARC
  8
BEZUGSACHSEN
 62
7
  6
CONTINUOUS
 10
218.2634644079
 20
244.691056135
 40
2.0
 50
180.0
 51
228.1896851042
  0
ARC
  8
BEZUGSACHSEN
 62
7
  6
CONTINUOUS
 10
230.2634644079
 20
242.4549881575
 40
1.0
 50
131.8103148958
 51
228.1896851042
  0
ARC
  8
BEZUGSACHSEN
 62
7
  6
CONTINUOUS
 10
236.2634644079
 20
242.4549881575
 40
1.0
 50
311.8103148958
 51
48.1896851042
  0
ARC
  8
BEZUGSACHSEN
 62
7
  6
CONTINUOUS
 10
220.2634644079
 20
242.4549881575
 40
1.0
 50
131.8103148958
 51
228.1896851042
  0
ARC
  8
BEZUGSACHSEN
 62
7
  6
CONTINUOUS
 10
226.2634644079
 20
242.4549881575
 40
1.0
 50
311.8103148958
 51
48.1896851042
  0
ARC
  8
BEZUGSACHSEN
 62
7
  6
CONTINUOUS
 10
276.7634644079
 20
170.9549881575
 40
0.5
 50
180.0
 51
270.0
  0
ARC
  8
BEZUGSACHSEN
 62
7
  6
CONTINUOUS
 10
269.7634644079
 20
170.9549881575
 40
0.5
 50
270.0
 51
360.0
  0
ARC
  8
BEZUGSACHSEN
 62
7
  6
CONTINUOUS
 10
266.7634644079
 20
170.9549881575
 40
0.5
 50
180.0
 51
270.0
  0
ARC
  8
BEZUGSACHSEN
 62
7
  6
CONTINUOUS
 10
259.7634644079
 20
170.9549881575
 40
0.5
 50
270.0
 51
360.0
  0
ARC
  8
BEZUGSACHSEN
 62
7
  6
CONTINUOUS
 10
256.7634644079
 20
170.9549881575
 40
0.5
 50
180.0
 51
270.0
  0
ARC
  8
BEZUGSACHSEN
 62
7
  6
CONTINUOUS
 10
249.7634644079
 20
170.9549881575
 40
0.5
 50
270.0
 51
360.0
  0
ARC
  8
BEZUGSACHSEN
 62
7
  6
CONTINUOUS
 10
246.7634644079
 20
170.9549881575
 40
0.5
 50
180.0
 51
270.0
  0
ARC
  8
BEZUGSACHSEN
 62
7
  6
CONTINUOUS
 10
239.7634644079
 20
170.9549881575
 40
0.5
 50
270.0
 51
360.0
  0
ARC
  8
BEZUGSACHSEN
 62
7
  6
CONTINUOUS
 10
268.2634644079
 20
204.21892018
 40
2.0
 50
0.0
 51
48.1896851042
  0
ARC
  8
BEZUGSACHSEN
 62
7
  6
CONTINUOUS
 10
268.2634644079
 20
204.21892018
 40
2.0
 50
131.8103148957
 51
180.0
  0
ARC
  8
BEZUGSACHSEN
 62
7
  6
CONTINUOUS
 10
258.2634644079
 20
204.21892018
 40
2.0
 50
0.0
 51
48.1896851042
  0
ARC
  8
BEZUGSACHSEN
 62
7
  6
CONTINUOUS
 10
258.2634644079
 20
204.21892018
 40
2.0
 50
131.8103148957
 51
180.0
  0
ARC
  8
BEZUGSACHSEN
 62
7
  6
CONTINUOUS
 10
248.2634644079
 20
204.21892018
 40
2.0
 50
0.0
 51
48.1896851042
  0
ARC
  8
BEZUGSACHSEN
 62
7
  6
CONTINUOUS
 10
248.2634644079
 20
204.21892018
 40
2.0
 50
131.8103148957
 51
180.0
  0
ARC
  8
BEZUGSACHSEN
 62
7
  6
CONTINUOUS
 10
238.2634644079
 20
204.21892018
 40
2.0
 50
0.0
 51
48.1896851042
  0
ARC
  8
BEZUGSACHSEN
 62
7
  6
CONTINUOUS
 10
238.2634644079
 20
204.21892018
 40
2.0
 50
131.8103148957
 51
180.0
  0
ARC
  8
BEZUGSACHSEN
 62
7
  6
CONTINUOUS
 10
276.2634644079
 20
206.4549881575
 40
1.0
 50
311.8103148959
 51
48.1896851042
  0
ARC
  8
BEZUGSACHSEN
 62
7
  6
CONTINUOUS
 10
270.2634644079
 20
206.4549881575
 40
1.0
 50
131.8103148958
 51
228.1896851043
  0
ARC
  8
BEZUGSACHSEN
 62
7
  6
CONTINUOUS
 10
266.2634644079
 20
206.4549881575
 40
1.0
 50
311.8103148959
 51
48.1896851042
  0
ARC
  8
BEZUGSACHSEN
 62
7
  6
CONTINUOUS
 10
260.2634644079
 20
206.4549881575
 40
1.0
 50
131.8103148958
 51
228.1896851043
  0
ARC
  8
BEZUGSACHSEN
 62
7
  6
CONTINUOUS
 10
256.2634644079
 20
206.4549881575
 40
1.0
 50
311.8103148959
 51
48.1896851042
  0
ARC
  8
BEZUGSACHSEN
 62
7
  6
CONTINUOUS
 10
250.2634644079
 20
206.4549881575
 40
1.0
 50
131.8103148958
 51
228.1896851043
  0
ARC
  8
BEZUGSACHSEN
 62
7
  6
CONTINUOUS
 10
246.2634644079
 20
206.4549881575
 40
1.0
 50
311.8103148959
 51
48.1896851042
  0
ARC
  8
BEZUGSACHSEN
 62
7
  6
CONTINUOUS
 10
240.2634644079
 20
206.4549881575
 40
1.0
 50
131.8103148958
 51
228.1896851043
  0
ARC
  8
BEZUGSACHSEN
 62
7
  6
CONTINUOUS
 10
316.7634644079
 20
170.9549881575
 40
0.5
 50
180.0
 51
270.0
  0
ARC
  8
BEZUGSACHSEN
 62
7
  6
CONTINUOUS
 10
309.7634644079
 20
170.9549881575
 40
0.5
 50
270.0
 51
360.0
  0
ARC
  8
BEZUGSACHSEN
 62
7
  6
CONTINUOUS
 10
306.7634644079
 20
170.9549881575
 40
0.5
 50
180.0
 51
270.0
  0
ARC
  8
BEZUGSACHSEN
 62
7
  6
CONTINUOUS
 10
299.7634644079
 20
170.9549881575
 40
0.5
 50
270.0
 51
360.0
  0
ARC
  8
BEZUGSACHSEN
 62
7
  6
CONTINUOUS
 10
296.7634644079
 20
170.9549881575
 40
0.5
 50
180.0
 51
270.0
  0
ARC
  8
BEZUGSACHSEN
 62
7
  6
CONTINUOUS
 10
289.7634644079
 20
170.9549881575
 40
0.5
 50
270.0
 51
360.0
  0
ARC
  8
BEZUGSACHSEN
 62
7
  6
CONTINUOUS
 10
286.7634644079
 20
170.9549881575
 40
0.5
 50
180.0
 51
270.0
  0
ARC
  8
BEZUGSACHSEN
 62
7
  6
CONTINUOUS
 10
279.7634644079
 20
170.9549881575
 40
0.5
 50
270.0
 51
360.0
  0
ARC
  8
BEZUGSACHSEN
 62
7
  6
CONTINUOUS
 10
318.2634644079
 20
204.21892018
 40
2.0
 50
131.8103148958
 51
180.0
  0
ARC
  8
BEZUGSACHSEN
 62
7
  6
CONTINUOUS
 10
308.2634644079
 20
204.21892018
 40
2.0
 50
0.0
 51
48.1896851042
  0
ARC
  8
BEZUGSACHSEN
 62
7
  6
CONTINUOUS
 10
308.2634644079
 20
204.21892018
 40
2.0
 50
131.8103148958
 51
180.0
  0
ARC
  8
BEZUGSACHSEN
 62
7
  6
CONTINUOUS
 10
298.2634644079
 20
204.21892018
 40
2.0
 50
0.0
 51
48.1896851042
  0
ARC
  8
BEZUGSACHSEN
 62
7
  6
CONTINUOUS
 10
298.2634644079
 20
204.21892018
 40
2.0
 50
131.8103148958
 51
180.0
  0
ARC
  8
BEZUGSACHSEN
 62
7
  6
CONTINUOUS
 10
288.2634644079
 20
204.21892018
 40
2.0
 50
0.0
 51
48.1896851042
  0
ARC
  8
BEZUGSACHSEN
 62
7
  6
CONTINUOUS
 10
288.2634644079
 20
204.21892018
 40
2.0
 50
131.8103148957
 51
180.0
  0
ARC
  8
BEZUGSACHSEN
 62
7
  6
CONTINUOUS
 10
278.2634644079
 20
204.21892018
 40
2.0
 50
0.0
 51
48.1896851042
  0
ARC
  8
BEZUGSACHSEN
 62
7
  6
CONTINUOUS
 10
278.2634644079
 20
204.21892018
 40
2.0
 50
131.8103148957
 51
180.0
  0
ARC
  8
BEZUGSACHSEN
 62
7
  6
CONTINUOUS
 10
316.2634644079
 20
206.4549881575
 40
1.0
 50
311.8103148958
 51
48.1896851043
  0
ARC
  8
BEZUGSACHSEN
 62
7
  6
CONTINUOUS
 10
310.2634644079
 20
206.4549881575
 40
1.0
 50
131.8103148958
 51
228.1896851043
  0
ARC
  8
BEZUGSACHSEN
 62
7
  6
CONTINUOUS
 10
306.2634644079
 20
206.4549881575
 40
1.0
 50
311.8103148958
 51
48.1896851043
  0
ARC
  8
BEZUGSACHSEN
 62
7
  6
CONTINUOUS
 10
300.2634644079
 20
206.4549881575
 40
1.0
 50
131.8103148958
 51
228.1896851043
  0
ARC
  8
BEZUGSACHSEN
 62
7
  6
CONTINUOUS
 10
296.2634644079
 20
206.4549881575
 40
1.0
 50
311.8103148958
 51
48.1896851043
  0
ARC
  8
BEZUGSACHSEN
 62
7
  6
CONTINUOUS
 10
290.2634644079
 20
206.4549881575
 40
1.0
 50
131.8103148958
 51
228.1896851043
  0
ARC
  8
BEZUGSACHSEN
 62
7
  6
CONTINUOUS
 10
286.2634644079
 20
206.4549881575
 40
1.0
 50
311.810314896
 51
48.1896851041
  0
ARC
  8
BEZUGSACHSEN
 62
7
  6
CONTINUOUS
 10
280.2634644079
 20
206.4549881575
 40
1.0
 50
131.8103148958
 51
228.1896851043
  0
ARC
  8
BEZUGSACHSEN
 62
7
  6
CONTINUOUS
 10
268.2634644079
 20
208.691056135
 40
2.0
 50
311.8103148958
 51
360.0
  0
ARC
  8
BEZUGSACHSEN
 62
7
  6
CONTINUOUS
 10
268.2634644079
 20
208.691056135
 40
2.0
 50
180.0
 51
228.1896851042
  0
ARC
  8
BEZUGSACHSEN
 62
7
  6
CONTINUOUS
 10
258.2634644079
 20
208.691056135
 40
2.0
 50
311.8103148958
 51
360.0
  0
ARC
  8
BEZUGSACHSEN
 62
7
  6
CONTINUOUS
 10
258.2634644079
 20
208.691056135
 40
2.0
 50
180.0
 51
228.1896851042
  0
ARC
  8
BEZUGSACHSEN
 62
7
  6
CONTINUOUS
 10
248.2634644079
 20
208.691056135
 40
2.0
 50
311.8103148958
 51
360.0
  0
ARC
  8
BEZUGSACHSEN
 62
7
  6
CONTINUOUS
 10
248.2634644079
 20
208.691056135
 40
2.0
 50
180.0
 51
228.1896851042
  0
ARC
  8
BEZUGSACHSEN
 62
7
  6
CONTINUOUS
 10
238.2634644079
 20
208.691056135
 40
2.0
 50
311.8103148958
 51
360.0
  0
ARC
  8
BEZUGSACHSEN
 62
7
  6
CONTINUOUS
 10
238.2634644079
 20
208.691056135
 40
2.0
 50
180.0
 51
228.1896851042
  0
ARC
  8
BEZUGSACHSEN
 62
7
  6
CONTINUOUS
 10
248.2634644079
 20
240.21892018
 40
2.0
 50
0.0
 51
48.1896851042
  0
ARC
  8
BEZUGSACHSEN
 62
7
  6
CONTINUOUS
 10
248.2634644079
 20
240.21892018
 40
2.0
 50
131.8103148958
 51
180.0
  0
ARC
  8
BEZUGSACHSEN
 62
7
  6
CONTINUOUS
 10
238.2634644079
 20
240.21892018
 40
2.0
 50
0.0
 51
48.1896851042
  0
ARC
  8
BEZUGSACHSEN
 62
7
  6
CONTINUOUS
 10
238.2634644079
 20
240.21892018
 40
2.0
 50
131.8103148958
 51
180.0
  0
ARC
  8
BEZUGSACHSEN
 62
7
  6
CONTINUOUS
 10
248.2634644079
 20
244.691056135
 40
2.0
 50
311.8103148958
 51
360.0
  0
ARC
  8
BEZUGSACHSEN
 62
7
  6
CONTINUOUS
 10
238.2634644079
 20
244.691056135
 40
2.0
 50
311.8103148958
 51
360.0
  0
ARC
  8
BEZUGSACHSEN
 62
7
  6
CONTINUOUS
 10
248.2634644079
 20
244.691056135
 40
2.0
 50
180.0
 51
228.1896851042
  0
ARC
  8
BEZUGSACHSEN
 62
7
  6
CONTINUOUS
 10
238.2634644079
 20
244.691056135
 40
2.0
 50
180.0
 51
228.1896851042
  0
ARC
  8
BEZUGSACHSEN
 62
7
  6
CONTINUOUS
 10
250.2634644079
 20
242.4549881575
 40
1.0
 50
131.8103148958
 51
228.1896851042
  0
ARC
  8
BEZUGSACHSEN
 62
7
  6
CONTINUOUS
 10
256.2634644079
 20
242.4549881575
 40
1.0
 50
311.8103148958
 51
48.1896851042
  0
ARC
  8
BEZUGSACHSEN
 62
7
  6
CONTINUOUS
 10
240.2634644079
 20
242.4549881575
 40
1.0
 50
131.8103148958
 51
228.1896851042
  0
ARC
  8
BEZUGSACHSEN
 62
7
  6
CONTINUOUS
 10
246.2634644079
 20
242.4549881575
 40
1.0
 50
311.8103148958
 51
48.1896851042
  0
ARC
  8
BEZUGSACHSEN
 62
7
  6
CONTINUOUS
 10
268.2634644079
 20
240.21892018
 40
2.0
 50
0.0
 51
48.1896851042
  0
ARC
  8
BEZUGSACHSEN
 62
7
  6
CONTINUOUS
 10
268.2634644079
 20
240.21892018
 40
2.0
 50
131.8103148958
 51
180.0
  0
ARC
  8
BEZUGSACHSEN
 62
7
  6
CONTINUOUS
 10
258.2634644079
 20
240.21892018
 40
2.0
 50
0.0
 51
48.1896851042
  0
ARC
  8
BEZUGSACHSEN
 62
7
  6
CONTINUOUS
 10
258.2634644079
 20
240.21892018
 40
2.0
 50
131.8103148958
 51
180.0
  0
ARC
  8
BEZUGSACHSEN
 62
7
  6
CONTINUOUS
 10
268.2634644079
 20
244.691056135
 40
2.0
 50
311.8103148958
 51
360.0
  0
ARC
  8
BEZUGSACHSEN
 62
7
  6
CONTINUOUS
 10
258.2634644079
 20
244.691056135
 40
2.0
 50
311.8103148958
 51
360.0
  0
ARC
  8
BEZUGSACHSEN
 62
7
  6
CONTINUOUS
 10
268.2634644079
 20
244.691056135
 40
2.0
 50
180.0
 51
228.1896851042
  0
ARC
  8
BEZUGSACHSEN
 62
7
  6
CONTINUOUS
 10
258.2634644079
 20
244.691056135
 40
2.0
 50
180.0
 51
228.1896851042
  0
ARC
  8
BEZUGSACHSEN
 62
7
  6
CONTINUOUS
 10
270.2634644079
 20
242.4549881575
 40
1.0
 50
131.8103148958
 51
228.1896851042
  0
ARC
  8
BEZUGSACHSEN
 62
7
  6
CONTINUOUS
 10
276.2634644079
 20
242.4549881575
 40
1.0
 50
311.8103148958
 51
48.1896851042
  0
ARC
  8
BEZUGSACHSEN
 62
7
  6
CONTINUOUS
 10
260.2634644079
 20
242.4549881575
 40
1.0
 50
131.8103148958
 51
228.1896851042
  0
ARC
  8
BEZUGSACHSEN
 62
7
  6
CONTINUOUS
 10
266.2634644079
 20
242.4549881575
 40
1.0
 50
311.8103148958
 51
48.1896851042
  0
ARC
  8
BEZUGSACHSEN
 62
7
  6
CONTINUOUS
 10
318.2634644079
 20
208.691056135
 40
2.0
 50
180.0
 51
228.1896851042
  0
ARC
  8
BEZUGSACHSEN
 62
7
  6
CONTINUOUS
 10
308.2634644079
 20
208.691056135
 40
2.0
 50
311.8103148958
 51
360.0
  0
ARC
  8
BEZUGSACHSEN
 62
7
  6
CONTINUOUS
 10
308.2634644079
 20
208.691056135
 40
2.0
 50
180.0
 51
228.1896851042
  0
ARC
  8
BEZUGSACHSEN
 62
7
  6
CONTINUOUS
 10
298.2634644079
 20
208.691056135
 40
2.0
 50
311.8103148958
 51
360.0
  0
ARC
  8
BEZUGSACHSEN
 62
7
  6
CONTINUOUS
 10
298.2634644079
 20
208.691056135
 40
2.0
 50
180.0
 51
228.1896851042
  0
ARC
  8
BEZUGSACHSEN
 62
7
  6
CONTINUOUS
 10
288.2634644079
 20
208.691056135
 40
2.0
 50
311.8103148958
 51
360.0
  0
ARC
  8
BEZUGSACHSEN
 62
7
  6
CONTINUOUS
 10
288.2634644079
 20
208.691056135
 40
2.0
 50
180.0
 51
228.1896851043
  0
ARC
  8
BEZUGSACHSEN
 62
7
  6
CONTINUOUS
 10
278.2634644079
 20
208.691056135
 40
2.0
 50
311.8103148958
 51
360.0
  0
ARC
  8
BEZUGSACHSEN
 62
7
  6
CONTINUOUS
 10
278.2634644079
 20
208.691056135
 40
2.0
 50
180.0
 51
228.1896851042
  0
ARC
  8
BEZUGSACHSEN
 62
7
  6
CONTINUOUS
 10
288.2634644079
 20
240.21892018
 40
2.0
 50
0.0
 51
48.1896851043
  0
ARC
  8
BEZUGSACHSEN
 62
7
  6
CONTINUOUS
 10
288.2634644079
 20
240.21892018
 40
2.0
 50
131.8103148958
 51
180.0
  0
ARC
  8
BEZUGSACHSEN
 62
7
  6
CONTINUOUS
 10
278.2634644079
 20
240.21892018
 40
2.0
 50
0.0
 51
48.1896851042
  0
ARC
  8
BEZUGSACHSEN
 62
7
  6
CONTINUOUS
 10
278.2634644079
 20
240.21892018
 40
2.0
 50
131.8103148958
 51
180.0
  0
ARC
  8
BEZUGSACHSEN
 62
7
  6
CONTINUOUS
 10
288.2634644079
 20
244.691056135
 40
2.0
 50
311.8103148958
 51
360.0
  0
ARC
  8
BEZUGSACHSEN
 62
7
  6
CONTINUOUS
 10
278.2634644079
 20
244.691056135
 40
2.0
 50
311.8103148958
 51
360.0
  0
ARC
  8
BEZUGSACHSEN
 62
7
  6
CONTINUOUS
 10
288.2634644079
 20
244.691056135
 40
2.0
 50
180.0
 51
228.1896851042
  0
ARC
  8
BEZUGSACHSEN
 62
7
  6
CONTINUOUS
 10
278.2634644079
 20
244.691056135
 40
2.0
 50
180.0
 51
228.1896851042
  0
ARC
  8
BEZUGSACHSEN
 62
7
  6
CONTINUOUS
 10
290.2634644079
 20
242.4549881575
 40
1.0
 50
131.8103148958
 51
228.189685104
  0
ARC
  8
BEZUGSACHSEN
 62
7
  6
CONTINUOUS
 10
296.2634644079
 20
242.4549881575
 40
1.0
 50
311.8103148958
 51
48.1896851042
  0
ARC
  8
BEZUGSACHSEN
 62
7
  6
CONTINUOUS
 10
280.2634644079
 20
242.4549881575
 40
1.0
 50
131.8103148958
 51
228.1896851042
  0
ARC
  8
BEZUGSACHSEN
 62
7
  6
CONTINUOUS
 10
286.2634644079
 20
242.4549881575
 40
1.0
 50
311.8103148957
 51
48.1896851042
  0
ARC
  8
BEZUGSACHSEN
 62
7
  6
CONTINUOUS
 10
318.2634644079
 20
240.21892018
 40
2.0
 50
131.8103148958
 51
180.0
  0
ARC
  8
BEZUGSACHSEN
 62
7
  6
CONTINUOUS
 10
308.2634644079
 20
240.21892018
 40
2.0
 50
0.0
 51
48.1896851043
  0
ARC
  8
BEZUGSACHSEN
 62
7
  6
CONTINUOUS
 10
308.2634644079
 20
240.21892018
 40
2.0
 50
131.8103148958
 51
180.0
  0
ARC
  8
BEZUGSACHSEN
 62
7
  6
CONTINUOUS
 10
298.2634644079
 20
240.21892018
 40
2.0
 50
0.0
 51
48.1896851043
  0
ARC
  8
BEZUGSACHSEN
 62
7
  6
CONTINUOUS
 10
298.2634644079
 20
240.21892018
 40
2.0
 50
131.8103148958
 51
180.0
  0
ARC
  8
BEZUGSACHSEN
 62
7
  6
CONTINUOUS
 10
308.2634644079
 20
244.691056135
 40
2.0
 50
311.8103148958
 51
360.0
  0
ARC
  8
BEZUGSACHSEN
 62
7
  6
CONTINUOUS
 10
318.2634644079
 20
244.691056135
 40
2.0
 50
180.0
 51
228.1896851042
  0
ARC
  8
BEZUGSACHSEN
 62
7
  6
CONTINUOUS
 10
298.2634644079
 20
244.691056135
 40
2.0
 50
311.8103148958
 51
360.0
  0
ARC
  8
BEZUGSACHSEN
 62
7
  6
CONTINUOUS
 10
308.2634644079
 20
244.691056135
 40
2.0
 50
180.0
 51
228.1896851042
  0
ARC
  8
BEZUGSACHSEN
 62
7
  6
CONTINUOUS
 10
298.2634644079
 20
244.691056135
 40
2.0
 50
180.0
 51
228.1896851042
  0
ARC
  8
BEZUGSACHSEN
 62
7
  6
CONTINUOUS
 10
310.2634644079
 20
242.4549881575
 40
1.0
 50
131.8103148958
 51
228.189685104
  0
ARC
  8
BEZUGSACHSEN
 62
7
  6
CONTINUOUS
 10
316.2634644079
 20
242.4549881575
 40
1.0
 50
311.8103148958
 51
48.1896851042
  0
ARC
  8
BEZUGSACHSEN
 62
7
  6
CONTINUOUS
 10
300.2634644079
 20
242.4549881575
 40
1.0
 50
131.8103148958
 51
228.189685104
  0
ARC
  8
BEZUGSACHSEN
 62
7
  6
CONTINUOUS
 10
306.2634644079
 20
242.4549881575
 40
1.0
 50
311.8103148958
 51
48.1896851042
  0
ARC
  8
BEZUGSACHSEN
 62
7
  6
CONTINUOUS
 10
257.6247269837
 20
68.7463057245
 40
3.25
 50
90.0
 51
270.0
  0
ARC
  8
BEZUGSACHSEN
 62
7
  6
CONTINUOUS
 10
265.1247269837
 20
68.7463057245
 40
3.25
 50
270.0
 51
90.0
  0
ARC
  8
BEZUGSACHSEN
 62
7
  6
CONTINUOUS
 10
207.6247269837
 20
68.7463057245
 40
3.25
 50
90.0
 51
270.0
  0
ARC
  8
BEZUGSACHSEN
 62
7
  6
CONTINUOUS
 10
215.1247269837
 20
68.7463057245
 40
3.25
 50
270.0
 51
90.0
  0
ARC
  8
BEZUGSACHSEN
 62
7
  6
CONTINUOUS
 10
157.6247269837
 20
68.7463057245
 40
3.25
 50
90.0
 51
270.0
  0
ARC
  8
BEZUGSACHSEN
 62
7
  6
CONTINUOUS
 10
165.1247269837
 20
68.7463057245
 40
3.25
 50
270.0
 51
90.0
  0
ARC
  8
BEZUGSACHSEN
 62
7
  6
CONTINUOUS
 10
107.6247269837
 20
68.7463057245
 40
3.25
 50
90.0
 51
270.0
  0
ARC
  8
BEZUGSACHSEN
 62
7
  6
CONTINUOUS
 10
115.1247269837
 20
68.7463057245
 40
3.25
 50
270.0
 51
90.0
  0
ARC
  8
BEZUGSACHSEN
 62
7
  6
CONTINUOUS
 10
65.1247269837
 20
68.7463057245
 40
3.25
 50
270.0
 51
90.0
  0
ARC
  8
BEZUGSACHSEN
 62
7
  6
CONTINUOUS
 10
284.6247269837
 20
68.7463057245
 40
2.25
 50
90.0
 51
270.0
  0
ARC
  8
BEZUGSACHSEN
 62
7
  6
CONTINUOUS
 10
238.1247269837
 20
68.7463057245
 40
2.25
 50
270.0
 51
90.0
  0
ARC
  8
BEZUGSACHSEN
 62
7
  6
CONTINUOUS
 10
234.6247269837
 20
68.7463057245
 40
2.25
 50
90.0
 51
270.0
  0
ARC
  8
BEZUGSACHSEN
 62
7
  6
CONTINUOUS
 10
188.1247269837
 20
68.7463057245
 40
2.25
 50
270.0
 51
90.0
  0
ARC
  8
BEZUGSACHSEN
 62
7
  6
CONTINUOUS
 10
184.6247269837
 20
68.7463057245
 40
2.25
 50
90.0
 51
270.0
  0
ARC
  8
BEZUGSACHSEN
 62
7
  6
CONTINUOUS
 10
138.1247269837
 20
68.7463057245
 40
2.25
 50
270.0
 51
90.0
  0
ARC
  8
BEZUGSACHSEN
 62
7
  6
CONTINUOUS
 10
134.6247269837
 20
68.7463057245
 40
2.25
 50
90.0
 51
270.0
  0
ARC
  8
BEZUGSACHSEN
 62
7
  6
CONTINUOUS
 10
88.1247269837
 20
68.7463057245
 40
2.25
 50
270.0
 51
90.0
  0
ARC
  8
BEZUGSACHSEN
 62
7
  6
CONTINUOUS
 10
84.6247269837
 20
68.7463057245
 40
2.25
 50
90.0
 51
270.0
  0
ENDSEC
  0
EOF
